&title=吞星之鲸
&artist=原神
&first=0
&des=luvlily
&lv_7=狂
&inote_5=(75){1},
{64}1/7b,6/8b,5h[128:1],4-8[16:1],{32}3/2z6[8:1],,,,,,,,,,,,,,
{32}17,,,,,,,,,,,,,,,,
{64}1b/8,2b,6h[32:15],4,{32}5,,,,,,,,,,,,,,
{32},,,,,,,,1,,,,1,,,,
{64}8/2b,3/1b,4h[128:1],5-1[16:1],{32}6/7s3[8:1],,,,,,,,,,,,,,
{32}82,,,,,,,,,,,,,,,,
{64}7b/8,6b,2h[32:15],4,{32}3,,,,,,,,,,,,,,
{32},,,,,,,,8V63[64:15],,,,,,,,
{32}1V74[64:15],,1,,1,,1,,2V85[64:15],,2,,2,,2,,
{32}3V16[64:15],,3,,3,,3,,4V27[64:15],,4,,4,,4,,
{32}5p3[64:15],,5,,5,,5,,6p4[64:15],,6,,6,,6,,
{32}7p5[64:15],,7,,7,,7,,8,,8,,8,,8,,
{32}1,,24,,2,,24,,3,,24,,4,,24,,
{32}5,,24,,6,,24,,7,,24,,8,,18,,
{32}35,,36,,37,,38,,13,,28,,17,,68,,
{32}5/7bs3[2:1],,,,,,,,,,,,,,,,
{32},,,,,,,,,,,,,,,,
{64}1-5[256:1],2,3,4,5,6,7,8,1h[128:1],2,3,4,5,6,7,8,{32},,,,,,,,
{64}1-5[256:1],2,3,4,5,6,7,8,1h[128:1],2,3,4,5,6,7,8,{32},,,,,,,,
{64}1z5[4:1],2,3,4,5,6,7,8,1,2,3,4,5,6,7,8,{32},,,,,,,,
{32}4b,,,,,,,,3,4,5,6,3,4,5,6,
{32}1b-4[16:1],,,,2^7[32:3]/3,,,,{64}4,5,{32}6^3[32:3],,,,,,,
{32}2^7[32:3]/6,,,,8-5[16:1],,,,4-1[16:1],,,,6-3[16:1],,,,
{32}2-7[16:1],,,,8-3[16:1],,,,4-7[16:1],,,,1-6[16:1],,,,
{32}5-2[16:1],,,,8,,,,3h[8:1],,,,{64}1,,,,5,4h[128:1],3h[128:1],2h[128:1],
{32}1bq6[32:3],,,,,,,,6,7,8,1,7,8,1,2,
{32}8/3p6[32:3],7,6,5,7,6,5,4,6,5,4,3,5,4,3,2,
{32}4/1q6[32:3],5,6,7,5,6,7,8,6V42[4:1],7,8,1,7,8,1v7[16:3],,
{32},,,,,,,,,,,,,,{64}2,3,4,5,
{32}7-3[24:1],,,2v8[24:1]/4v6[24:1],,,,,3b,,,,,,,,
{32}12,,3,4,4,5,3,,6,5,5,4,6,5,5,,
{32}3h[16:1],,2,3,1,2,2,3,1h[16:1],,2,1,3,2,2,1,
{32}3h[16:1],,{32}4,5,6,3,{32}4,,{128}7,8,{64},{32},,,{64},,,,2,3h[128:1],4h[128:1],5h[128:1],
{32}6z2[32:3],,,,4,,,,2,,1h[32:1],,1h[32:1],8,7h[32:1],1,
{32}8z4[32:3],,1h[32:1],,1h[32:1],,2,8h[64:1],4,,3h[32:1],,3h[32:1],2,1h[32:1],3,
{32}2z6[32:3],,4h[32:1],,4h[32:1],,5,2h[64:1],7V14[8:3]*V14[8:3],,8h[32:1],,8h[32:1],1-4[32:7]*v6[32:7],2h[32:1],8,
{32},,,,,,,,,,,,,,,,
{32}3h[16:1]/5,,4,3,,3,4,,3h[16:1],,4,3,,3,4,,
{32}3h[16:1]/6,,4,3,,3,4,,3h[16:1],,4,3,,3,4,,
{32}2h[16:1]/6,,4,3,,3,4,,3h[16:1],,4,3,,3,4,,
{32}1h[16:1]/6,,4,3,,3,4,,3h[16:1],,4h[16:1],,5h[16:1],,6,,
{32}78,,8,,68,,8,,58,,8,,48,,8,,
{32}21,,1,,31,,1,,41,,1,,51,,1,,
{32}6,5,7,4,8,3,1,2,4,3,5,2,6,1,7,8,
{32}1bq3[32:6]/6b>6[32:6],,,,,,,,,,,,,,,,
{32}45,,36,,27,,18,,1v2[32:1],2v3[32:1],3v4[32:1],4v5[32:1],5v6[32:1],6v7[32:1],7v8[32:1],8,
{32},,,,,,,,1b-6[16:1],,2v5[16:1],3,2v7[16:1],,4-1[16:1],,
{32},,,,,,,,8,,1,8,2,7,3,6,
{32}4v3[16:1],6v7[16:1],3v2[16:1],7v8[16:1],2,8,3,7,,,,,,,,,
{32}45,,36,,27,,18,,8v6[16:1],7v5[16:1],6v4[16:1],5v3[16:1],4v2[16:1],3v1[16:1],2,1,
{32},,,,,,,,8h[8:1],,{48}6,5,4,3,2,1,{64}7,6,5,4,
{32}3bq6[8:1],,,,{64}8,7,6,5,4,3,2,1,{32}8b,,,,{64}7,8,1,2,3,4,5,6,
{32}7bp4[8:1],,,,{64}1,2,3,4,5,6,7,8,{32}1b-5[256:1],,,,{64}3,2,1,8,7,6,,,
{32},,,,,5b/7-3[32:1],4h[64:1]/6b,,2,,1,,8h[4:1],,,,
{32}2-8[16:1],,3-8[16:1],,4-8[16:1],,5-8[16:1],,,,,,,,,,
{32}1,2,4,3,5,4,1,2,2,3,5,4,6,5,2,3,
{32}5,4,7,6,4,5,2,3,5,4,7,6,4,5,2,3,
{32}1,,,78,,4b/2-6[32:1],5h[64:1]/3b,,7,,8,,1h[4:1],,,,
{32}7-1[16:1],,6-1[16:1],,5-1[16:1],,4-1[16:1],,,,,,,,,,
{32}7bq2[8:1],,,,{64}4,3,2,1,8,7,6,5,{32}4b,,,,{64}3,4,5,6,7,8,1,2,
{32}3bp8[8:1],,,,{64}5,6,7,8,1,2,3,4,{32}5b,,,,{64}7,6,5,4,3,2,1,8,
{32}7b,,,,,,,,,,,,,,,,
{32},,,,,,,,,,,,,,,,
{32},,,,,,,,,,,,,,,,
{32},,,,,,,,,,,,,,,,
{32},,,,,,,,,,,,,,,,
{32},,,,,,,,,,,,,,,,
{32},,,,,,,,,,,,,,,,
{32},,,,,,,,,,,,,,,,
{32},,,,,,,,,,,,,,,,
{32},,,,,,,,,,,,,,,,
{32},,,,,,,,,,,,,,,,
{32},,,,,,,,,,,,,,,,
{32},,,,,,,,,,,,,,,,
{32},,,,,,,,,,,,,,,,
{32},,,,,,,,,,,,,,,,
{32},,,,,,,,,,,,,,,,
{32},,,,,,,,,,,,,,,,
{32},,,,,,,,,,,,,,,,
{32},,,,,,,,,,,,,,,,
{32},,,,,,,,,,,,,,,,
{32},,,,,,,,,,,,,,,,
{32},,,,,,,,,,,,,,,,
{32},,,,,,,,,,,,,,,,
{32},,,,,,,,,,,,,,,,
{32},,,,,,,,,,,,,,,,
{32},,,,,,,,,,,,,,,,
{32},,,,,,,,,,,,,,,,
{32},,,,,,,,,,,,,,,,
{32},,,,,,,,,,,,,,,,
{32},,,,,,,,,,,,,,,,
{32},,,,,,,,,,,,,,,,
{32},,,,,,,,,,,,,,,,
{32},,,,,,,,,,,,,,,,
&inote_7=(75){1},
{64}1/7b,6/8b,5h[128:1],4-8[16:1],{32}3/2z6[8:1],,,,,,,,,,,,,,
{32}17,,,,,,,,,,,,,,,,
{64}1b/8,2b,6h[32:15],4,{32}5,,,,,,,,,,,,,,
{32},,,,,,,,1,,,,1,,,,
{64}8/2b,3/1b,4h[128:1],5-1[16:1],{32}6/7s3[8:1],,,,,,,,,,,,,,
{32}82,,,,,,,,,,,,,,,,
{64}7b/8,6b,2h[32:15],4,{32}3,,,,,,,,,,,,,,
{32},,,,,,,,8V63[64:15],,,,,,,,
{32}1V74[64:15],,1,,1,,1,,2V85[64:15],,2,,2,,2,,
{32}3V16[64:15],,3,,3,,3,,4V27[64:15],,4,,4,,4,,
{32}5p3[64:15],,5,,5,,5,,6p4[64:15],,6,,6,,6,,
{32}7p5[64:15],,7,,7,,7,,8,,8,,8,,8,,
{32}1,,24,,2,,24,,3,,24,,4,,24,,
{32}5,,24,,6,,24,,7,,24,,8,,18,,
{32}35,,36,,37,,38,,13,,28,,17,,68,,
{32}5/7bs3[2:1],,,,,,,,,,,,,,,,
{32},,,,,,,,,,,,,,,,
{64}1-5[256:1],2,3,4,5,6,7,8,1h[128:1],2,3,4,5,6,7,8,{32},,,,,,,,
{64}1-5[256:1],2,3,4,5,6,7,8,1h[128:1],2,3,4,5,6,7,8,{32},,,,,,,,
{64}1z5[4:1],2,3,4,5,6,7,8,1,2,3,4,5,6,7,8,{32},,,,,,,,
{32}4b,,,,,,,,3,4,5,6,3,4,5,6,
{32}1b-4[16:1],,,,2^7[32:3]/3,,,,{64}4,5,{32}6^3[32:3],,,,,,,
{32}2^7[32:3]/6,,,,8-5[16:1],,,,4-1[16:1],,,,6-3[16:1],,,,
{32}2-7[16:1],,,,8-3[16:1],,,,4-7[16:1],,,,1-6[16:1],,,,
{32}5-2[16:1],,,,8,,,,3h[8:1],,,,{64}1,,,,5,4h[128:1],3h[128:1],2h[128:1],
{32}1bq6[32:3],,,,,,,,6,7,8,1,7,8,1,2,
{32}8/3p6[32:3],7,6,5,7,6,5,4,6,5,4,3,5,4,3,2,
{32}4/1q6[32:3],5,6,7,5,6,7,8,6V42[4:1],7,8,1,7,8,1v7[16:3],,
{32},,,,,,,,,,,,,,{64}2,3,4,5,
{32}7-3[24:1],,,2v8[24:1]/4v6[24:1],,,,,3b,,,,,,,,
{32}12,,3,4,4,5,3,,6,5,5,4,6,5,5,,
{32}3h[16:1],,2,3,1,2,2,3,1h[16:1],,2,1,3,2,2,1,
{32}3h[16:1],,{32}4,5,6,3,{32}4,,{128}7,8,{64},{32},,,{64},,,,2,3h[128:1],4h[128:1],5h[128:1],
{32}6z2[32:3],,,,4,,,,2,,1h[32:1],,1h[32:1],8,7h[32:1],1,
{32}8z4[32:3],,1h[32:1],,1h[32:1],,2,8h[64:1],4,,3h[32:1],,3h[32:1],2,1h[32:1],3,
{32}2z6[32:3],,4h[32:1],,4h[32:1],,5,2h[64:1],7V14[8:3]*V14[8:3],,8h[32:1],,8h[32:1],1-4[32:7]*v6[32:7],2h[32:1],8,
{32},,,,,,,,,,,,,,,,
{32}3h[16:1]/5,,4,3,,3,4,,3h[16:1],,4,3,,3,4,,
{32}3h[16:1]/6,,4,3,,3,4,,3h[16:1],,4,3,,3,4,,
{32}2h[16:1]/6,,4,3,,3,4,,3h[16:1],,4,3,,3,4,,
{32}1h[16:1]/6,,4,3,,3,4,,3h[16:1],,4h[16:1],,5h[16:1],,6,,
{32}78,,8,,68,,8,,58,,8,,48,,8,,
{32}21,,1,,31,,1,,41,,1,,51,,1,,
{32}6,5,7,4,8,3,1,2,4,3,5,2,6,1,7,8,
{32}1bq3[32:6]/6b>6[32:6],,,,,,,,,,,,,,,,
{32}45,,36,,27,,18,,1v2[32:1],2v3[32:1],3v4[32:1],4v5[32:1],5v6[32:1],6v7[32:1],7v8[32:1],8,
{32},,,,,,,,1b-6[16:1],,2v5[16:1],3,2v7[16:1],,4-1[16:1],,
{32},,,,,,,,8,,1,8,2,7,3,6,
{32}4v3[16:1],6v7[16:1],3v2[16:1],7v8[16:1],2,8,3,7,,,,,,,,,
{32}45,,36,,27,,18,,8v6[16:1],7v5[16:1],6v4[16:1],5v3[16:1],4v2[16:1],3v1[16:1],2,1,
{32},,,,,,,,8h[8:1],,{48}6,5,4,3,2,1,{64}7,6,5,4,
{32}3bq6[8:1],,,,{64}8,7,6,5,4,3,2,1,{32}8b,,,,{64}7,8,1,2,3,4,5,6,
{32}7bp4[8:1],,,,{64}1,2,3,4,5,6,7,8,{32}1b-5[256:1],,,,{64}3,2,1,8,7,6,,,
{32},,,,,5b/7-3[32:1],4h[64:1]/6b,,2,,1,,8h[4:1],,,,
{32}2-8[16:1],,3-8[16:1],,4-8[16:1],,5-8[16:1],,,,,,,,,,
{32}1,2,4,3,5,4,1,2,2,3,5,4,6,5,2,3,
{32}5,4,7,6,4,5,2,3,5,4,7,6,4,5,2,3,
{32}1,,,78,,4b/2-6[32:1],5h[64:1]/3b,,7,,8,,1h[4:1],,,,
{32}7-1[16:1],,6-1[16:1],,5-1[16:1],,4-1[16:1],,,,,,,,,,
{32}7bq2[8:1],,,,{64}4,3,2,1,8,7,6,5,{32}4b,,,,{64}3,4,5,6,7,8,1,2,
{32}3bp8[8:1],,,,{64}5,6,7,8,1,2,3,4,{32}5b,,,,{64}7,6,5,4,3,2,1,8,
{32}7b,,,,,,,,,,,,,,,,
{32},,,,,,,,,,,,,,,,
{32},,,,,,,,,,,,,,,,
{32},,,,,,,,,,,,,,,,
{32},,,,,,,,,,,,,,,,
{32},,,,,,,,,,,,,,,,
{32},,,,,,,,,,,,,,,,
{32},,,,,,,,,,,,,,,,
{32},,,,,,,,,,,,,,,,
{32},,,,,,,,,,,,,,,,
{32},,,,,,,,,,,,,,,,
{32},,,,,,,,,,,,,,,,
{32},,,,,,,,,,,,,,,,
{32},,,,,,,,,,,,,,,,
{32},,,,,,,,,,,,,,,,
{32},,,,,,,,,,,,,,,,
{32},,,,,,,,,,,,,,,,
{32},,,,,,,,,,,,,,,,
{32},,,,,,,,,,,,,,,,
{32},,,,,,,,,,,,,,,,
{32},,,,,,,,,,,,,,,,
{32},,,,,,,,,,,,,,,,
{32},,,,,,,,,,,,,,,,
{32},,,,,,,,,,,,,,,,
{32},,,,,,,,,,,,,,,,
{32},,,,,,,,,,,,,,,,
{32},,,,,,,,,,,,,,,,
{32},,,,,,,,,,,,,,,,
{32},,,,,,,,,,,,,,,,
{32},,,,,,,,,,,,,,,,
{32},,,,,,,,,,,,,,,,
{32},,,,,,,,,,,,,,,,
{32},,,,,,,,,,,,,,,,
