&title=Hookah, whoo!
&artist=藍月なくる×DECO*27×tepe
&first=-0.08
&des=つき
&lv_5=13
&inote_5=(177)
{8}
,,,,
35,2,64,2,75,2,1,83,,
{16}6,5,
{16}6,,43,,
{8}72,,8-5[8:1]/1-4[8:1],,1bx/8bx,,
6<2[16:3],,65,,4<7[8:1],,4x>1[8:1],,4x-7[8:1],,4x-1[8:1],,4x,,8p3[16:3],,8xq5>3[16:6],,8x,,,
7h[8:2],,5,4,3,2/5,,1-4[8:1]/8-5[8:1],,8bx/1bx,,
3>7[16:3],,34,,5>2[8:1],,5x<8[8:1],,5x-2[8:1],,5x-8[8:1],,5x,,1q6[16:3],,1xp4<6[16:6],,1x,,,
2h[8:2],,4h[8:2],,5h[8:2],,8h[8:2],,,7b/5b,,,,43,,,,
65,,53,,4-6[8:1]/2-4[8:1],,,,7x/3x,,,8/4,,,1/5,,7/2,,36,,5<7[8:1]/4>2[8:1],,,,
1x,,34,,6-8[8:1],5,5,,1-5[8:1],,1x/4x-2[8:1],,4x/6x,,7,7,5,5,4,4,2,2,8,7,
2>5[8:1],1,,7,8qq6[8:1]*pp2[8:1],,8bx,,
1x-4[8:1],,1,6,8x-5[8:1],,8,,
6hx[8:1]/2hx[8:1],,3hx[8:1]/7hx[8:1],,8x/4x,,
64,64,6h[8:2]/4,,A5,3h[8:3],,B4,B6,,4,3,6,7,8q5[8:2]/2pp3[8:2],,8x/2x,,,,7x/5x,,
2-4[8:1],1,1,,8-4[8:1],,8x/5x>2[8:1],,5x/6x,,1,1,4,4,5,5,7,8,2,1,
7-4[8:1],8,2-5[8:1],1,7,,1>7[8:4],,4hx[8:8]/1x,,,,,,,,
8<5pp4[8:8],,,,,,,,1pp8[8:6],,,,,,,,6pp5[8:6],,,,,,,,
A4,,A3,,A2,,A1,C,
A4,,A5,,A6,,A4,C,
2,2,5,5,3,3,6,6,
4h[8:6]/7h[8:8],,,,,,
,,1-5[8:1],2,1x/7,,1-5[8:1],2,1x/7,,
3/6,4,3/8>3[8:1],47,8bx,,
6x/5x,4,3h[8:1]/5h[8:1],,2h[8:1]/4h[8:1],,7h[8:1]/5h[8:1],,6h[8:1]/4h[8:1],,
3/5,2,1<6[8:1]/3,4,1xp4[8:1]/2,,1x,,
8-4[8:1],7,8x/2,,8-4[8:1],7,8x/2,,
6/2,73,4-1[8:1]/8-5[8:1],,8b/4b,,
3x,5,6h[8:1]/4h[8:1],,7h[8:1]/5h[8:1],,8/6h[8:1],1,5h[8:1]/2,,
6/4,7,3p6[16:3]/5,2,7>2[8:1]b/3x,,7bx,,
{16}3bx,4bx,3bx,4bx,3bx,,,,
6x,5x,6x,5x,6x,,,,
2>5[8:1],,,,7>2[8:1],,,,4-1[8:1],,,,4,,,,
7bx,8bx,7bx,8bx,7bx,,,,
2x,1x,2x,1x,2x,,,,
7-2[8:1],,,,3-6[8:1],,,,8w4[8:1]b,,,,8bx,,,,
{8}1-5[8:1],2,1x/7,,8-4[8:1],7,8x/2,,
3/5,2,8p4[8:1]/7<4[8:1],16,7b/8b,,
3>8[8:2],4,7,6,5,4,3x<7[8:2]/7x,,
8,1,2,3,4x/8x,,
87,56,4/3,12,8-4[8:1]/3,,8/2-5[8:1],,2/6<1[8:1],,65,4,,12,34,68,,,
4-1[8:1]/5-8[8:1],,
{32}4b/5b,E5,C,E1f/D1/A8/A1,
,,,,{8}
7xp3[16:3],,71,,8<5[8:1],,1x>4[8:1],,1x-6[8:1],,1x-4[8:1],,1x,,5q2[16:3],,
5xp8p3
[16:7],,5x,,,
7h[8:2],,4,2,8,3/1,,4-1[8:1]/5-8[8:1],,5bx/4bx,,
2q6[16:3],,82,,1>4[8:1],,8x<5[8:1],,8x-3[8:1],,8x-5[8:1],,8x,,4p7[16:3],,
4xq1q6[16:7],,4x,,,
2h[8:2],,4h[8:2],,5h[8:2],,8<5[8:1],,81,,,
{16}2/4,,,,3h[8:1],,4h[8:1],,2h[8:1],,5h[8:1],,4,,,,
7/5,,,,6h[8:1],,5h[8:1],,7h[8:1],,8h[8:1],,6,,,,
1/3,,,,2h[8:1],,4h[8:1],,3h[8:1],,1,,7x/C/B8/B1,,,,2x/E5/B5/B4,,,,
45,,,36,,,27,,,,
8h[8:1],,4,,7h[8:1],,3,,8h[8:1],,4,,7h[8:1],,3,,6h[8:1],,2,,5h[8:1],,1,,
6h[8:1],,2,,7h[8:1],,3,,84,,84,,73,,73,,26,,26,,15,,8>5p8[8:6]/4,,,,,,,,,,,,,,,,
{8}7-1q3[8:5],,,,5,,,,4<7q1[8:5],,,,2,,,,3p6>5p7[8:5],,,,4,,,,
6<1[8:1],,5-8[8:1],
,4-1[8:1],,3,,
{8}6,6,6,6,
6,6,6,6,
{8}4,4,4,4,
4,4,4,4,
5,5,3,3,7,7,
2,2,1,1,8,8,6,6,5w1[8:4],,5,,,,,,1p4[8:2]*q6[8:2],,1,,,,
Ch[8:4],,,,E7,,,,,,,,E6,,,,,,,,E5,,,,,,,,E4,,,,
,,,,4h[8:2]/3,,2,3,4,6,75,,
5h[8:2]/6,,7,6,5,3,24,,
8/7,6,5,68,1/3,4,35,,
D8/A7/E7/B6/E6/D6,,C/B5/B4/E5,,D2/E2/B2/E3/A3/D4,,,,
1-5[8:1]/8,2,1x/7,,1-5[8:1]/8,2,1x/7,,
3/6,4,3/8>3[8:1],47,8bx,,
6/5,4,3h[8:1]/5h[8:1],,2h[8:1]/4h[8:1],,7h[8:1]/5h[8:1],,6h[8:1]/4h[8:1],,
3/5,2,1<6[8:1]/3,4,1xp4[8:1]/2,,1x,,
8-4[8:1]/1,7,8x/2,,8-4[8:1]/1,7,8x/2,,
6/2,73,4-1[8:1]/8-5[8:1],,8b/4b,,
2,3,6h[8:1]/4h[8:1],,7h[8:1]/5h[8:1],,8/6h[8:1],1,5h[8:1]/2,,
6/4,7,2<7[16:2]/6,3,5>2[8:1]b/2x,,5bx,,
{16}8bx,7bx,1bx,6bx,8bx,,,,
6x,5x,7x,4x,5x,,,,
3>8[8:1],,,,6>3[8:1],,,,1<6[8:1],,,,12,,,,
3bx,4bx,2bx,5bx,4bx,,,,7x,8x,6x,1x,8x,,,,
2-5[8:1],,,,6-1[8:1],,,,4w8[8:1]b,,,,4bx,,,,
{8}1-5[8:1]/6,2,1x/7,,8-4[8:1]/3,7,8x/2,,
3/5,2,8>3[8:1]/7q3[8:1],56,7b/8b,,
6<1[8:2],5,2,3,4,5,6x>2[8:2]/2x,,
1,8,7,6,5x/1x,,
12,43,5/6,87,1-5[8:1]/6,,1/7-4[8:1],,7/3>8[8:1],,34,5,,87,65,3/1<6[8:1],,
1/5-2[8:1],4,56,,1v4[8:1]/7v4[8:1],26,1b/7b,,,
5-8[8:1]/4-1[8:1],,
{32}5b/4b,E5,C,E1f/D1/A1/A8,
,,,,{8}7xp3[16:3],,71,,8<5[8:1],,1x>4[8:1],,1x-6[8:1],,1x-4[8:1],,1x,,5q2[16:3],,
5xp8p3
[16:7],,5x,,,
7h[8:2],,4,3,1,2/8,,4-1[8:1]/5-8[8:1],,5bx/4bx,,
2q6[16:3],,82,,1>4[8:1],,8x<5[8:1],,8x-3[8:1],,8x-5[8:1],,8x,,4p7[16:3],,
4xq1q6[16:7],,4x,,,
2h[8:2],,4h[8:2],,7h[8:2],,8h[8:2],,2h[8:2],,4h[8:2],,6h[8:2],,7h[8:2],,8,,
{16}35,,6,5,6,,34,,25,,8>3[8:1]b/7q4[8:1]b,,34,,7b/8b,,,
&inote_6=
