&title=鳥の詩
&artist=Lia
&first=0
&des=luvlily
&lv_5=12+
&inote_5=(122.1){1},
{4},,,,
{16}3^6[2:1],,,,,,,,,,,,,,,,
{16}2>6[2:1],,,,,,,,,,,,,,,,
{16}1>6[2:1],,,,,,,,,,,,,,,,
{16}8h[8:3],,,,5,,5,,,,6,,5,,4^7[8:2],,
{16}3h[8:3],,,,,,,,,,6,,5,,4<8[16:5],,
{16}2h[8:3],,,,,,,,,,7,,8,,1,,
{16}2>7[8:4],,,,,,,,,,,,8z4[4:3],,,,
{16},,,,,,,,,,,,,,,,
{16}2q3[2:1]/7p6[2:1],,,,,,,,,,,,,,,,
{16}27,,,,6h[4:1],,,,5h[4:1],,,,4,,,,
{16}1p8[2:1]/8,,,,,,,,,,,,,,,,
{16}61,,,,2h[4:1],,,,3h[4:1],,,,4,,,,
{16}6q7[2:1]/3p2[2:1],,,,,,,,,,,,,,,,
{16}27,,,,3h[4:1],,,,4h[4:1],,,,5h[4:1],,,,
{16}7qq4[2:1]*pp8[16:5],,,,,,,,,,,,,,,,
{16}3^6[4:1]/8,,,,6^1[4:1],,,,1^4[4:1],,,,,,,,
{16}5p3[2:1]/5q7[2:1],,,,,,,,,,,,,,,,
{16}28,,,,3h[4:1],,,,4h[4:1],,,,5,,,,
{16}5p3[2:1]/4q6[2:1],,,,,,,,,,,,,,,,
{16}27,,,,6h[4:1],,,,5h[4:1],,,,4,,,,
{16}3p1[2:1]/6q8[2:1],,,,,,,,,,,,,,,,
{16}18,,,,6/5h[4:1],,,,4h[4:1],,,,3h[4:1],,,{32}8,7,
{16}6,,4,,{24}6,5,6,5,6,5,6,5,6,5,6,5,6,,,47,,,
{16}1h[8:1],,3,3h[8:1],,4,4,5,,6,5,7,8,7,16,,
{16}8h[8:1],,6,6h[8:1],,4,4,3,,2,1,4,5,1,27,,
{16}6,5,7,8,6,5,8,1,5,4,8,1,4,3,7,8,
{16}16,,,6,5,,4,,35,,,3,4,,5,,
{16}64,,,7,5,,4,,3,4,2,4,3,,1,,
{16}28,,,7,5,,4,,35,,,2,4,,5,,
{16}64,,,7,5,,4,,3,4,3,4,2,5,2,5,
{16}1,,,7,5,,46,,35,,,2,4,,35,,
{16}46,,,7,5,,46,,3,4,2,4,3,,1,,
{16}18,,,7,5,,46,,2,1,3,8,4,7,5,,
{16}4,5,3,6,4,5,2,7,3,6,2,7,4,5,1,8,
{16}27,,,6,5h[8:1],,7,,64,,,3,4h[8:1],,2,,
{16}35,,,6,5h[8:1],,7,,3,4,2,4,3,,1,,
{16}28,,,7,5h[8:1],,4,,35,,,2,4h[8:1],,5,,
{16}64,,,7,5h[8:1],,4,,3,4,3,4,2,5,2,5,
{16}1,,,7,5h[8:1],,4,,35,,,2,4h[8:1],,5,,
{16}46,,,8,5h[8:1],,4,,3,4,2,4,3,,18,,
{16}2>6[4:1]/7,,,,6<2[4:1],,,,2,,,,6,,,,
{16}6,5,7,4,6,5,8,3,7,4,8,3,6,5,1,2,
{16}83,,5,5,4h[8:1],,6,6,5h[8:1],,7,7,6h[8:1],,8,8,
{16}1h[8:1],,3,3,2h[8:1],,4,4,3,5,4,5,36,,7,8,
{16}6h[8:1],,4,4,5h[8:1],,3,3,4h[8:1],,2,2,3h[8:1],,1,1,
{16}8h[8:1],,6,6,7h[8:1],,5,5,6,4,5,4,6,3,8,,
{16}27,,1,1,8h[8:1],,2,2,1h[8:1],,3,3,2h[8:1],,4,4,
{16}5h[8:1],,7,7,6h[8:1],,8,8,7,1,8,1,72,,3,4,
{16}2h[8:1],,8,8,1h[8:1],,7,7,8h[8:1],,6,6,7h[8:1],,5,5,
{16}3,4,2,5,3,4,1,6,2,5,1,6,3,4,8,7,
{16}16,,3,3,5h[8:1],,6,6,4h[8:1],,2,2,5h[8:1],,7,7,
{16}4h[8:1],,3,3,8h[8:1],,6,6,8,1,8,2,37,,6,5,
{16}7h[8:1],,1,1,2h[8:1],,8,8,7h[8:1],,1,1,3h[8:1],,8,8,
{16}6h[8:1],,2,2,4h[8:1],,7,7,5,4,5,4,6,3,8,,
{16}17,,2,2,8h[8:1],,7,7,1h[8:1],,3,3,8h[8:1],,6,6,
{16}1h[8:1],,2,2,5h[8:1],,7,7,5,4,5,3,26,,8,1,
{16}7,,3,4,25,,6,5,47,,3,4,15,,{32}8,4,8,4,
{16}8b,,,,1b/5b,,,,{32}28,3,4,5,6,7,8,1,27,3,4,5,6,7,8,1,
{16}2b-5[8:1]/6b,,4,,12,,8,,5-1[8:1]/7,,8,,35,,2,,
{16}3-7[8:1]/4,,5,,36,,5,,4v7[8:1]/8v3[8:1],,1/5,,48,,,,
{16}1b^6[8:1]/5b,,7,,21,,3,,6p2[8:1]/4,,3,,86,,1,,
{16}8q4[8:1]/7,,6,,85,,6,,7^4[8:1]/3q8[8:1],,2/6,,73,,,,
{16}4b-8[8:1]/8b,,6,,34,,2,,1<5[8:1]/7,,6,,31,,4,,
{16}3-7[8:1]/2,,1,,38,,1,,2V83[6:1]/6V47[6:1],,4/8,,26,,,,
{16}4,5,3,7,1,8,1,7,4,6,2,5,2,7,1,8,
{16}37,,6,5,48,,2,3,48,,7,6,15,,3,4,
{16}1bV35[8:1]/5b,,36,,81,,7,,4V68[8:1]/6,,18,,24,,1,,
{16}2V86[8:1]/1,,46,,25,,4,,3pp3[6:1]/7pp7[6:1],,8/4,,37,,,,
{16}8bV64[8:1]/4b,,63,,18,,2,,5V31[8:1]/3,,18,,75,,8,,
{16}7V13[8:1]/8,,53,,74,,5,,6qq6[6:1]/2qq2[6:1],,1/5,,62,,,,
{16}3bV17[8:1]/7b,,51,,43,,5,,8V64[8:1]/6,,53,,28,,3,,
{16}2V46[8:1]/1,,86,,27,,8,,1V72[6:1]/5V36[6:1],,3/7,,15,,,,
{16}3,4,2,6,8,7,8,6,5,7,3,6,3,8,2,1,
{16}3,5,1,6,4,7,2,6,5,7,3,6,1,4,3,7,
{16}1,1,2,2,3,3,4,4,5,5,6,6,7,7,8,8,
{16}1,2,3,4,5,6,7,8,{32}1,2,3,4,5,6,7,8,1,2,3,4,5,6,7,8,
{16}1b/5b,,3,,4-1[8:1],,5,,6^3[8:1],,7,,8-5[8:1],,1,,
{16}2-6[8:1],,3,,4^7[8:1],,5,,8,,1,,2,,35,,
{16}6-3[8:1],,7,,8^5[8:1],,1,,2-5[8:1],,3,,4-1[8:1],,6,,
{16}7-4[8:1],,8,,6<3[4:1],,5,,3,,4,,5,,64,,
{16}1b-6[8:1],,7,,1-4[8:1],,3,,1^6[8:1],,7,,1^4[8:1],,3,,
{16}1-5[8:1],,7,,1>7[4:1],,3,,1,,8,,1,,2,,
{16}45,,6,6,5,7,8,7,16,,3,3,4,2,1,2,
{16}38,,4,4,5,5,3,3,6,6,2,2,7,7,18,18,
{16}2/7<2[2:1],,,,,,,,,,,,,,,,
{16}7/2>7[2:1],,,,,,,,,,,,,,,,
{16}2/7p4[2:1],,,,,,,,,,,,,,,,
{16}7/2q5[2:1],,,,,,,,,,,,,,,,
{16}3,,,,,,,,{32},4h[32:1],{16},,,,,,,
{16},6h[96:1],,,,,,,,5h[32:1],,,,,,,
{16},,{32}3,4,5,6-3[1:1],,,,,,,,,,,
{32},,,,,,,,,,,,,,,,{32},,,,,,,,,{96},,,,,,1b,,{32},,,,,,,,,,,,,,,,
