&title=Superbia
&artist=Team Grimoire
&first=0.316
&des=micavro
&lv_5=14+
&inote_4=
&inote_5=(195)
{1},
{4},,,
8b/1h[4:2],,2h[4:2],,3h[4:2],,4h[4:2],,8h[4:2],,7h[4:2],,6h[4:2],,5h[4:2],,1h[4:4],,2,3,4pp8[4:6],,3,2,1qq3[4:6],,,,6-3[16:7],,,,
{8}5/4,,5/4,,5/3,,5/3,,5/2,,5/2,,5-7[8:1]/1-5[8:1],,,,
4/8,,4/8,,4/7,,4/6,6,4/6,,4/5,,4-8[8:1]/6-3[8:1],,,,
{8}1,1,1/5,,2/6,,3/7,,
{24}4/8,,,7,6,5,4,,,1,2,3,4,,,8,7,6,5,4,,,,,
{16}1,,1,,1,,1,,1,8,2,7,1,8,2,7,
{4}1bs5[2:1],,,,4qq6[1:1]/8qq2[1:1],,,,,,5w1[8:1],5,
{16}7h[4:3],,,,3-5[8:1],,,,3,,,,,,,,4/5,,6,5,6,5,,4/5,,3,4,3,4,3,4,3,5h[4:3],,,,3-1[8:1],,,,3,,,,,,,,1/8,,2,1,2,1,,1/8,,7,8,7,8,7,8,7,1h[4:3],,,,8-2[8:1],,,,8,,,,,,,,3/5,,,,6,6,,4,7,7,3,3,8,8,2,2,1h[4:2],,,,2-4[8:1],,,,2,,,,8,,3,,{24}7b,6,5,,1b,2,3,,7b,6,5,,2b,3,4,{16},,8-5[8:1],,2,,8,1,2,3,4-1[8:1],,,,5<7[8:1]/4,,,,5/3qq4[8:3],,3,,3,,,,7qq8[8:3],,,,7/2,,,,3-8[8:1],,,,3,4,5,6,7<4[8:1],,,,7/2-5[8:1],,,,2/6V48[4:1],,6,,6,,,,2,,,,
{24}7b,6,5,,2b,3,4,,7b,6,5,,
{16}1,2,3,4,5>2[8:1],,,,6pp5[8:3]/5,,,,6/1,,,,4,3,2,1,8>3[8:1],,,,7qq8[8:3]/8,,,,7/4,,,,1,,2,,3,,4,,8,,7,,6-8[8:1],5,6,5,{24}6b/4,,,,,,,,,7/2b,3,4,,,,,,,{32}7b/2,6,5,,,,,,
{16}4b-1[8:1]/8b-5[8:1],,,,,,,,7/2,,3,6,3,,7/2,,6,3,6,,7/2,,{24}3,4,5,{16}6,,2/7,,{24}6,5,4,{16}3,,2b-5[8:1]/6b-1[8:1],,,,,,,,4/8,,{24}7,6,5,{16}4,,7/3,,{24}4,5,6,{16}7,,{24}3/8h[4:1],,,,,,4b,3,2,,5b,6,7,,3b,2,1,,{16},8b/4b-7[8:1],,,,,,,2b,,5,3,5,3,7b,,4,6,4,6,1b,,{24}5,2,5,2,5,,3b,,,{24}6,4,6,{16}4,6,3b-8[8:1]*-6[8:1],,,,,,,,{24}1b,2,3>8[8:1],,,,,,6b,5,4<7[8:1],,,,,,3b,2,1-4[8:1],,,,,,8,,,,7,,,,6,,,,
{8}4b-1[8:1],,4/8-4[8:1],7,6/8,,5-2[8:1],,5-8[8:1]/7,,3/5-1[8:1],,5/7,,6-4[8:1],6,6/2-5[8:1],,2/7-3[8:1],,7/1-5[8:1],,1/8,,7h[8:1]/4h[4:1],,,2h[4:1]/5h[8:1],,,3/6,,
8b-5[8:1],,8/4-8[8:1],3,2/4,,1-6[8:1],,1-5[8:1]/3,,7/1-4[8:1],,1/3,,2-8[8:1],,2/6-1[8:1],,6/3-8[8:1],3,3/5-1[8:1],,5,,{24}3b,,3,,3,,8b,,8,,8,,4,3,2,1,8,7,6,5,4/8,3/7,2/6,1/5,
{4}8h[1:4]/4pp7[4:6],,,,,,,,1h[1:2],,,,,,,,,,,,,,,,,,,,,,,,,,
{8},7,3,4,5,6,4,5,6,7,8,8,{16}1,2,3,4,5,6,7,8,
{8},2,6,5,4,3,5,4,3,2,1,1,8w4[8:1],,8,,
{16}7/1,2,3,4,8,7,6,5,2,3,4,5,1,8,7,6,3,2,1,8,5,6,7,8,5,4,3,2,1,2,3,4,
5/6,7,8,1,5,4,3,2,8,7,2,3,7,6,3,4,6,7,8,1,3,4,5,6,2,3,4,5,6,7,8,1,
4b,3,2,1,4,5,6,7,3,2,1,8,5,6,7,8,3,2,1,8,6,7,8,1,3,4,5,6,5,4,3,2,
8b,7,6,5,1,2,3,4,8,7,1,2,7,6,2,3,5b,,3,4,2/5,,6,5,4/7,,1,8,7/2,,
,,{24}5-7[8:1],4,5,4,5,4,5,,,,,,1-3[8:1],8,1,8,1,8,1,,,,,,
{16}4,5,4,6,4,7,4,8,4,1,4,2,4-8[8:1],3,4,5,4bqq1[8:9]*pp7[8:9],,,,,,,,,,,,,,,,,,,,,,,,8w4[8:1],,,,8,,,,
{8}2b-6[8:1]/6b,,2-4[8:1],5,2-6[8:1],7,2-4[8:1],5,2-6[8:1],7,2-4[8:1],5,2,7,6,6,7b-3[8:1]/3b,,7-5[8:1],4,7-3[8:1],1,7-5[8:1],4,7-3[8:1],1,7-5[8:1],4,7,1,3,3,1b-5[8:1]/5b,,1-3[8:1]/6,6,1-5[8:1]/4,4,1-3[8:1]/6,6,1-5[8:1]/4,4,1-3[8:1]/6,6,1-5[8:1]/4,4,1/6,6,7/4b,
{16}6,5,7,,3,4,2,5,3,4,1,6,3,8,
{24}2b,3,4,,6b,7,8,,2b,3,4,,{16}7h[8:1],,3,4,5,6,7,8,1b/7>7[8:13],,,,,,,,,,,,,,,,,,,,,,,,1-4[8:1],,2,,1,,,,
{24}8b<6[8:1],,,,,,8-5[8:1]/3,,,3,,,8-4[8:1]/2,,,2,,,8-5[8:1]/1,,,1,,,8<6[8:1]/2,,,2,,,8-4[8:1]/3,,,3,,,8/2,,,2,,,3,,,3,,,4/6,,,,,,
{24}3b,2,1>4[8:1],,,,,,8b,7,6<1[8:1],,,,,,5b,4,3<6[8:1],,,,,,1b,8,7>2[8:1],,,,{16}5-3[8:1],,,,5,,,,2/8,,3,4,3,,3/5,,4/6,,7,8,7,,1/7,,
{16}2h[8:2]/8pp7[8:4],,,,,,,,5-3[8:1],,,,,,,,
{16}1/8b,,2/8b,,3,4,5,6,7,8,1,2,3,4,5,6,7/5b,,8/5b,,1,2,3,4,5,6,7,8,1,2,3,4,5/8b,,6/8b,,7,8,1,2,3/7b,,4/7b,,5,6,7,8,1/5b,,2,3,4/7b,,5,6,7/5b,,6b/8,,7b/1,,8b/2,,1b/3,,3,4,2,,6,5,7,,3,4,2,,,,{24}1,8,1,8,1,8,1,8,1,8,1,8,1,8,1,8,1,8,1b,,,,,,{16}2,3,4,5,3,4,5,6,4,5,6,7,5,6,7,8,1h[4:5]/5qq2[4:4],,,,,,,,,,,,,,,,,,,,,,,,3w7[8:1],,,,3,,,,
{16}1p3[16:4],,,,,,7,6,5<8[8:1],,,4,4h[4:1],,,,1h[8:1],,5,8,4,7,3,6,2>5[8:1],,,,,,1,8,7-4[8:1],,,4,,,3,,2,1,2,1,2,,8,7,6b-1[8:1],,,4b>1[8:1],,,4b,,{24}8,7,6,5,,,8,7,6,5,,,{16}
3h[4:1]/8<5[8:1],,,,,,4,3,2-6[8:1],,8-4[8:1],,2,,8,,1h[4:1],,,,,,2/6,3/7,4/8,,,,1,,1,,3b,4,2,5,1,6,8,7,5b,6,4,7,3,8,2,1,
{24}3b,4,5,,8b,7,6,,,2b,3,4,,8b,7,6,,,
{16}1,,2,,3h[4:1]/8p6[16:5],,,,,,2,3,4>1[8:1],,,5,5h[8:2],,,,8h[8:1],,4,1,5,2,6,3,7-4[8:1],,,,,,8,1,2v5[8:1],,,5,,,6,,7,8,7,8,7,,1,2,3bv8[8:1],,,5b<8[8:1],,,5b,,{24}1,2,3,4,,,1,2,3,4,,,{16}
7h[4:1]/1-3[8:1],,,,,,8,7,6-2[8:1],,4-8[8:1],,6,,4,,5h[4:1],,,,,,6/2,7/3,8/4,,,,5,6,5,,7b,8,6,1,5,2,4,3,1b,2,8,3,7,4,6,5,
{24}8b,7,6,,,1b,2,3,,,7b,6,5,,2b,3,4,,6b,7,3b,2,1,,
{16}8bv1[8:1]/7bv6[8:1],,,,,,,,7/2,,3,5,3,,6/2,,5,4,5,,7/1,,{24}3,4,5,{16}6,,2/8,,{24}7,6,5,{16}4,,3bv2[8:1]/6bv7[8:1],,,,,,,,8/1,,{24}6,5,4,{16}3,,2/8,,{24}3,4,5,{16}6,,{24}2/7h[4:1],,,,,,2b,3,4,,8b,7,6,,1b,2,3,,{16},8b-4[8:1]/4b,,,,,,,1b,,5,3,5,3,7b,,4,6,4,6,1b,,{24}5,3,5,3,5,,2b,,,{24}6,4,6,{16}4,6,3bv8[8:1]*v6[8:1],,,,,,,,{24}1b,2,3-8[8:1],,,,,,7b,6,5-8[8:1],,,,,,1b,2,3,,,,,,
{24}7b,6,5,,,1b,2,3,,7b/4b,6/3,5h[24:19]/2h[24:19],,,,,,,,,,,,,,,,,,,,,,,,,2qq6[4:15]/5qq7[4:15],,,,
