&title=EPHMR
&artist=aran
&first=0.5
&des=Drelxyse
&lv_5=14
&inote_1=
&inote_5=(202)
{8},,,5hx[8:5],,,,,
{8}4hx[4:1],,6,,,3x,4,3,
{8}5hx[4:1],,3,,,6x,,,
{8}4hx[4:1],,,,,5hx[8:3],,,3x,,B4,,,B2/B7,,,
{8}5hx[4:1],,3,,,6x,5,6,
{8}4hx[4:1],,6,,,3x,,,
{8}5hx[4:1],,,,,4hx[8:3],,,6x,,B5,,,B7/B2,,,
{8}1x>6x[1:1]/8x,,7,,5,5,,,
{8}6x<3x[1:1],,4,,2,2,,,
{8}3x<6x[8:5],,1,,7,7,,8b-2[8:1],
{16}8,,,3b,,,,,2x-6[8:1]/5x-3[8:1],,,,,,,,
{2}7hx[2:1]/2x,5h[2:1],3h[2:1],1h[2:1],
{4}8h[4:1],3,
{8}4h[4:1]/7,6,5,4/3,
{4}1,84,6v8[8:1]/2v4[8:1],,
{8}1x^6pp1[8:5],,,2,2-4[8:1],,2x,,
{8}5h[8:1],,4hx[8:1]/7h[8:1],,3h[8:1]/6hx[8:1],,,,
{8}2^5qq2b[8:5]/5-7[8:1],,,,8x-6[8:1],,,,
{4}7xp3[2:1]/3xp7[2:1],B2/B6,C/E1/B8/B4/E5,,
{8}15,2,2,2,37,6,45,,{8}83,7,7,7,26,1,34,,{8}25,6,6,6,73,8,12,,{8}1-7[8:1]/2,,2V46[4:1]/1,,6x-3[8:1],7V58[4:1],7x,,
{8}2,3,14,5,7,64,2,,
{8}18,7,6,25,43,3,83,,
{8}74,5,8,26,1,7,3-5-2-8[8:3]/5,,
{8}3b/7b-4[8:1],,7b,,1x/5x,26,3v8[8:1]/7v4[8:1],,
{8}37,,,1,6h[4:1],,5h[1:1],,1h[16:1],,8h[16:1],,7h[16:1],,,,7-3[8:1],7,5v2[8:1],5,4^7[8:1],4x,1^3[8:1],,
{8}8x/1x-6[8:1],,2x/1-4[8:1],,7x/1^7[8:1],,1/5h[8:1],,
{8}3h[4:3],,,8,7,,6x,,1h[8:1]/5h[8:1],,8h[8:1]/4h[8:1],,7h[4:1]/3h[4:1],,,,
{8}1,1,6,6,
{16}3,4,2,5,1,6,7/8,,
{32}1bv6[8:1],2,3,4,5,6,7,8,
{8}1x/4,,4-7[8:1],8,2b/4b-2[8:1],,
{8}6x<2<6[1:3]/4,,,,5,5,5,,3,,5,4,3,,4,4,5,5,3,,4,,2,2,3,3,4x,,51,26,37,37,
{8}4x-8[8:1],,4b>7>3[8:22]/Cf,,5x,5,5,,6,,6,5,4,,4,4,5,5,6,,5,,6,6,7,7,5x,,
{16}5x/3hx[16:3],6,7,8,4x,5,6,7,
(101)
{4}8-5-3[4:1],8/3V17[4:1],7-3-5[4:1],1,
{4}8h[4:1],6h[4:1],
{32}4hx[32:1],,,4hx[16:1],,,,,
{4}2h[4:1],
{32}1b,,,8,,,71,,,62,,,53,,,,4/8b,,,56,,,12,,,87,,,34,,,,
{12}5b/6,7x/8x,1x/2x,35,68,71,2h[48:1]/4bh[48:1],5h[48:1]/6h[48:1],3h[48:1]/7h[48:1],2h[48:1]/6h[48:1],1h[48:1]/5h[48:1],8h[48:1]/4h[48:1],
{4}3h[1:1]/7bh[2:1],,,E1/B1,
{4}8<3[4:3],8,
{8}1,2,3v5[8:3],,
{4}1>6[4:3],1,
{8}8,7,7,,
{4}4hx[2:1],
{16},,8x,7x,
{4}6hx[2:1],
{16},,3x,2x,
{16}1hx[8:1],3,3,,8hx[8:1],6,6,,
{4}4w8[8:1]/B2f/E3,4b,V71
{4}5V71[4:1],1V35[4:1],
{8}B8,B7,B6,,
{4}1>5[4:1],5<1[4:1],
{8}B2,B3,B4,,
{16}2/6h[2:1],,,E1,E8,,E3/B3,,
{8}8,1,2q2[8:3]/6q6[8:3],,
{4},,
{8}4-8b[16:1]/8-4b[16:1],37,4x/8x,,
(202)
{16}6,5,6,,3,4,3,,7,5,6,,2,4,3,,7,5,8,,2,4,1,,3,7,1,,6,2,8,,
{16}1b,7,2,7,3,7,4,7,5b,7,5,6,5,6,5,6,5b,7,5,8,5x,1x,,,
{32}5b/1b,48,73,62,51,8,7,6,5,4x,,,,,,,
{8}78,6,12,3,4-8[8:1]/5,4,7-5[8:1],7,1-3[8:1],1,4,6-4-7b[4:1],4-2[8:1],6,,,
{8}1b-7[8:1],6,1-3[8:1],4,1-6[8:1],6V82[8:1],1,,
{8}4b-7-3[4:1],4,3^5[8:1],2^8[8:1],,,4xw8[8:1],,
{8}Cf,,,A7/E7/A6/E6,A1/E2/A2/E1,,E5/B4/E4,,
{16}7hx[8:1]/2x,1,8h[4:1],,6x,5,4,,
{128}E1,E5,,,
{32}B1/B5,B2/B6,B3/B7,E4/E8,,,,
{4},
{8}3,3,2,2,
{16}1,8,7,8,6,5,4,5h[16:9],
{8},
{32}E1,B1,B2,E3,
{4}3-7[8:1],,,
{8}6x/8x,3,45,7,13,6,57,2,
{8}7-4[8:1]/3b,7,1-6[8:1],1,8-4[8:1],8,
{24}3b,2,1,8x,7,6,
{8}5-1[8:1],5x,7-3[8:1],7,2v5[8:1],2,
{24}6b,7,8,1,2x,3,
{8}4x-1[8:1],5,6-8[8:1]/4,7,3/6,
{24}4b,3,2,6b,5,4,1b,8,7,
{8}6bh[24:11],,,
{24}8b,1,2,5b,4,3,,,,1b/4b,85,67,,,,
{8},1/5,3V16[4:1]/7V52[4:1],,3/7,,,,
{8}8hx[4:1],,4h[4:1],,1,5,
{16}2,6,2,6,
{8}3-8[8:1]/7,,7-4[8:1]/3,,2-6[8:1]/7,,2/8-4b[8:1],,
{1}8-4-8[4:6],,
{8}6h[4:1],,3h[4:1],,5,4,5,3h[4:1],,5h[4:1],,4h[4:1],,6,6,,
{8}3h[4:1],,5h[4:1],,4,5,4,6h[4:1],,5h[8:1],4h[8:1],3h[8:1],,5-7[8:1],5,,
{16}2,8,2,8,3,7,3,7,4,6,4,6,
{24}3x,2,1,,,,
{16}5,3,5,3,6,4,6,4,7,5,7,5,
{24}8x,1,2,,,,
{16}3,6,3,6,4,6,5,6,7,6,8,6,1,6,2b,,
{8},3b/4b,2b/8b,1b^6b[8:1]/6b,,3b/1b,
{32}E4f,E5,E6,E7,E8,,,,
{8},,1-6[8:1]/5,1,8-3[8:1],8,5v2[8:1],5,4xpp7[4:1],4,8,1,2-6[8:1],48,26,
{8},4v7[8:1]/5,
{16}3,4,3,,
{8}1,8/6h[8:1],,
{16}5,4,3/5qq2[4:1],,
{8},56,7,8b-6[8:1],,8b-4[8:1]/3b-7[8:1],2,8b/3b,,
{16}5b,5b,5b,,
{8}7x/3x,4/5-2[8:1],3x,6^8[8:1]/5x,
{8},6/4x-8[8:1],3,6-1-3b[4:1]/4,7,6/3-7[8:1],4h[8:1],,,
{8}8v3[8:1]/1,
{16}7,8,7,,
{8}5,4/2h[8:1],,{16}1,8,7^5b[8:1]/2,,
{16},,3b/7x,2,1,,7b/3b,84,1/5,26,37,48,1x^6pp1[4:3]/5,,,,
{8}1b,,,2x,3x,,5h[8:3],,
{24}8,7,6,,,,2,1,8,7,,,6b/8b,15,24,3-5[8:1],,,
{8},,2<5[4:1],2,4,4,
{16}8,3,8,3,7,2,7,2,
{16}6,1,8,3,5,4,5hx[4:1],,
{24}6b,7,8,1,2,3,4/6,7,8,1,2,3,4bw8[4:1],
{4},,
E
&inote_7=(202)
{8},,,5hx[8:5],,,,,
{8}4hx[4:1],,6,,,3x,4,3,
{8}5hx[4:1],,3,,,6x,,,
{8}4hx[4:1],,,,,5hx[8:3],,,3x,,B4,,,B2/B7,,,
{8}5hx[4:1],,3,,,6x,5,6,
{8}4hx[4:1],,6,,,3x,,,
{8}5hx[4:1],,,,,4hx[8:3],,,6x,,B5,,,B7/B2,,,
{8}1x>6x[1:1]/8x,,7,,5,5,,,
{8}6x<3x[1:1],,4,,2,2,,,
{8}3x<6x[8:5],,1,,7,7,,8b-2[8:1],
{16}8,,,3b,,,,,2x-6[8:1]/5x-3[8:1],,,,,,,,
{2}7hx[2:1]/2x,5h[2:1],3h[2:1],1h[2:1],
{4}8h[4:1],3,
{8}4h[4:1]/7,6,5,4/3,
{4}1,84,6v8[8:1]/2v4[8:1],,
{8}1x^6pp1[8:5],,,2,2-4[8:1],,2x,,
{8}5h[8:1],,4hx[8:1]/7h[8:1],,3h[8:1]/6hx[8:1],,,,
{8}2^5qq2b[8:5]/5-7[8:1],,,,8x-6[8:1],,,,
{4}7xp3[2:1]/3xp7[2:1],B2/B6,C/E1/B8/B4/E5,,
{8}15,2,2,2,37,6,45,,{8}83,7,7,7,26,1,34,,{8}25,6,6,6,73,8,12,,{8}1-7[8:1]/2,,2V46[4:1]/1,,6x-3[8:1],7V58[4:1],7,,
{8}2,3,14,5,7,64,2,,
{8}18,7,6,25,43,3,83,,
{8}74,5,8,26,1,7,3-5-2-8[8:3]/5,,
{8}3b/7b-4[8:1],,7b,,1x/5x,26,3v8[8:1]/7v4[8:1],,
{8}37,,,1,6h[4:1],,5h[1:1],,1h[16:1],,8h[16:1],,7h[16:1],,,,7-3[8:1],7,5v2[8:1],5,4^7[8:1],4x,1-3[8:1],1,
{8}6hx[8:1]/1x-7[8:1],,4h[8:1]/1-3[8:1],,6h[8:1]/1-6-8[4:1],,1/5h[8:1],,
{8}3h[4:3],,,8,7,,6x,,1h[8:1]/5h[8:1],,8h[8:1]/4h[8:1],,7h[4:1]/3h[4:1],,,,
{8}1,1,6,6,
{16}3,4,2,5,1,6,7/8,,
{32}1bv6[8:1],2,3,4,5,6,7,8,
{8}1x/4,,4-7[8:1],8,2b/4b-2[8:1],,
{8}4,,,,5/A7f,5,5,,3/A1f,,5,4,3/A8f,,5,5,6/A1f,6,7,,4,,2,2,3,3,4,,5,5,2,2,
{8}4x-8[8:1],,4/Cf,,5x,5,5,,6,,6,5,4,,4,4,5,5,6,,5,,6,6,7,7,5,,
{16}5x,6,7,8,4x,5,6,7,8,
