&title=Who Killed U.N.Owen Part.1
&artist=LizTriangle
&first=0
&des=なないし
&freemsg=
&wholebpm=61.66666666666667-127
&des_1=
&des_2=
&des_3=
&des_4=
&des_5=なないし
&clock_count=4
&lv_5=12+
&lv_6=11+
&inote_1=
&inote_2=
&inote_3=
&inote_4=
&inote_5=(80)
{1},{64},{256},
{1}4-1-6-3b[2:3],,
{1}2qq5b[2:3],,
{1}2V86qq5[2:3]*V86qq5b[2:3],,{256},,,,,
(127)
{8}7h[8:3]/4h[4:1],,,2h[8:3],6h[8:3],,,3h[8:3],8h[8:3],,,1h[2:1],8,7,6,5,
{4}2x^5[8:1],B3/B4,8x^5[8:1],B6/B7,1x^4[8:1],B2/B3,{8}8h[2:1],5,4,3,
{4}2-5[8:1],2/1,7-4[8:1],3/7,1-4[8:1],8/1-6[8:1],3/1-5-2[4:1],1/7,
{4}8-4[8:1],3/8,2-5[8:1],2/6,{16}8,7,6,,1,,2,,3,,4b/8b,,2b/6b,,,,
{8},3^6[8:1],2,1,8^3[8:1],7,6,5,
{4}4pp7[4:3]/5qq2[4:3],,,,
{8},1v6[8:1],2,3,4v1[8:1],5,6,7-4[8:1],8-3[8:1],7,8,5q2^5[8:3],5pp5[4:1],,,,
{8},4V28[4:1],7,6,5,4V68[4:1],2,3,4xq6[8:5]*p2[8:5],,,,,,,,
{8}3-7[8:1]/7-4[8:1],8,3/7,,1-5[8:1]/5,2,1/6-1[8:1],7,3-8[8:1]/6x,4,3x/6-2[8:1],5,6x/2,,3^6^3^6b[4:3]/7p2q7p2b[4:3],,
{4}A3/A7,A2/A6,A3/A7,A2/A6,
{16}3,4,2,,{8}8,1,2/6,3/7,4x^1^4^1b[4:3]/8x^5^8^5b[4:3],,
{4}A4/A8,A1/A5,A4/A8,A1/A5,
{8}3,6,4/5,4/5,2/7,B2/B3/B6/B7/C,B2/B3/B6/B7/C,,
{8}7^4b[8:1]/3q8b[8:1],C/E6,,,2^5b[8:1]/6p1b[8:1],C/E4,,,
{16}7,5,6,,{8}3,4,1/5,2/6,7/3x^8[4:1],,
{8}8^5[4:1],,5^2[4:1],,2^7[4:1],,7,,
{8}B6,B2,C,B3,B7,,5v3[8:1],3q7[8:1],
{8}5,2,1-6[8:1],6v3[8:1],1,,8-4[8:1],7,
{8}6,5^8[8:1],4,3,2-6[8:1]*-5[8:1],,C,,
{8}8xbqq8b[8:3],4xb,3xb,2xb,1xpp1[8:3],,B8,B7,
{8}B6,B5,2q7[8:1]/6q3[8:1],3/7,C,,1-5[8:1],7,
{8}1,8-4[8:1],4^7[8:1],8,3p1[8:3],,8,7,6,5,3v1[8:1]/7v5[8:1],4/8,C,,6-1-5[4:1],,
{8}1,2,3^8[8:1],4,5,6^3[8:1],7,8,1qq5[2:1],,,2,2,,3pp2[4:3],,
{4}7h[4:1],,
{4}Ch[4:1],,{8}B6/B7,D7,E6/E8,C,E2/E4,D3,B2/B3,8b,
{4}6v1[8:1]/2-5[8:1],6/2,7-4[8:1]/4-8[8:1],7/4V61[4:1],
{8}4/2,,3-7[8:1],4,3^6[8:1]/7^2[8:1],,3/7p6[8:3],,
{8}7,4,3,2,1/5,{16}7,8,{8}6,1,
{8}2/B6,3,B4/8,7,6-1[8:1]/2-5[8:1],,Cf,,
{4}7-4[8:1]/3v8[8:1],7/3,1-5[8:1]/6-1[8:1],6/1V74[4:1],
{8}1/3,,2-6[8:1],1,2/8^3[8:1]*^5[8:1],,8p6[8:3],,
{8}8,4,3,2,5/1,{16}3-6^3[2:1],4,{8}2,8,
{4}Cf,B7/B8,2^7[4:1],B3/B4,
{4}6-1[4:1],B2/B3,2-5[8:1],{8}7/2x,8xbv3b[8:1],7xb-4b[8:1],8xb,7xb,1-5[8:1],2,3,4,{16}6,5,
{8}7,2,3^6[4:1]/6^3[4:1],B7/B2,3/6,,,,
{4}7^2[4:1],E5/E4,3^6[4:1],E1/E8,
{4}7-4[4:1],E2/E3,3-8[8:1],{8}3x/6,B7,
{8}4v1[8:1]/6v1[8:1],B3,4/6,,7-4[8:1]/8-4[8:1],7/8,B2/B3/B4/B5/B6/B7/C/E5,,
{8}1/6,3/8,2/4,5/7,1w5[8:1]/8,,
{32}1b,B1,Cf,B5/B4/B6,{8},E
&inote_6=(80)
{1},{64},{256},
{1}1-4[4:3]/8V63[2:3],,
{1}2qq5[2:3]*qq5[2:3],,
{1}2V86[2:3]/6qq5[2:3],,{256},,,,,,
(127)
{8}7h[8:3]/4h[4:1],,,2h[8:3],6h[8:3],,,3h[8:3],8h[8:3],,,1h[2:1],8,7,6,5,
{4}2^5[8:1],2/4,8^5[8:1],6/8,1^4[8:1],1/4,{8}8h[2:1],5,4,3,
{4}2-5[8:1],2/1,7-4[8:1],3/7,1-4[8:1],8/1-6[8:1],3/1V37[4:1],1/7,
{4}8-4[8:1],3/8,2-5[8:1],2/6,{16}8,7,6,,1,,2,,3,,4b/8b,,2b/6b,,,,
{8},3^6[8:1],2,1,8^3[8:1],7,6,5,
{4}4pp7[4:3]/5qq2[4:3],,,,
{8},1v6[8:1],2,3,4v1[8:1],5,6,7-4[8:1],8-3[8:1],7,8,5pp5[4:1],2,5^2[8:1]*q2[8:1],,,
{8},4V28[4:1],7,6,5,4V68[4:1],2,3,4q6[8:5]*p2[8:5],,,,,,,,
{8}3-7[8:1]/7-4[8:1],8,3/7,,1-5[8:1]/5,2,1/6-1[8:1],7,3-8[8:1]/6,4,3/6-2[8:1],5,6/2,,3^6[8:1]/8,,
{4}3/7p2[8:1],3^6[8:1]/7,3/7p2[8:1],3/7,
{16}3,4,2,,{8}8,1,2/6,3/7,4^1[8:1]/8,,
{4}4/8^5[8:1],4^1[8:1]/8,4/8^5[8:1],4/8,
{8}3,6,4/5,4/5,2/7,1h[128:1]/8h[128:1],1h[128:1]/8h[128:1],,
{8}7^4[8:1]/3q8[8:1],2/8,3/7,,2^5[8:1]/6p1[8:1],7/1,2/6,,
{16}7,5,6,,{8}3,4,1/5,2/6,7/3^8[4:1],,
{8}8^5[4:1],,5^2[4:1],,2^7[4:1],,7,,
{8}6,2,4,3,7,,5v3[8:1],3q7[8:1],
{8}5,2,1-6[8:1],6v3[8:1],1,,8-4[8:1],7,
{8}6,5^8[8:1],4,3,2-6[8:1]*-5[8:1],,2,,
{8}8qq8[8:3]*qq8[8:3],4,3,2,1pp1[8:3],,8,7,
{8}6,5,2q7[8:1]/6q3[8:1],3/7,,,1-5[8:1],7,
{8}1,8-4[8:1],4^7[8:1],8,3p1[8:3],,8,7,6,5,3v1[8:1]/7v5[8:1],4/8,3/7,,6q5[4:1],,
{8}1,2,3^8[8:1],4,5,6^3[8:1],7,8,1qq5[2:1],,,2,2,,3pp2[4:3],,
{4}6h[4:1],,
{4}8h[4:1],,{8}5/7,6,4,1,2/4,3,5,8b,
{4}6v1[8:1]/2-5[8:1],6/2,7-4[8:1]/4-8[8:1],7/4V61[4:1],
{8}4/2,,3-7[8:1],4,3^6[8:1]/7^2[8:1],,3/7p6[8:3],,
{8}7,4,3,2,1/5,{16}7,8,{8}6,1,
{8}2/6,3,4/8,7,6-1[8:1]/2-5[8:1],,2b/6b,,
{4}7-4[8:1]/3v8[8:1],7/3,1-5[8:1]/6-1[8:1],6/1V74[4:1],
{8}1/3,,2-6[8:1],1,2/8^3[8:1]*^5[8:1],,8p6[8:3],,
{8}8,4,3,2,5/1,{16}3-6[4:1],4,{8}2,6^3[4:1],
{4}7b,8,2^7[4:1],4,
{4}6-1[4:1],3,2-5[8:1],{8}7b/2,8v3[8:1]*v3[8:1],7-4[8:1]*-4[8:1],8,7,1-5[8:1],2,3,4,{16}6,5,
{8}7,2,3^6[4:1]/6^3[4:1],1/8,3/6,,,,
{4}7^2[4:1],4,3^6[4:1],8,
{4}7-4[4:1],2,3-8[8:1],{8}3/6b,7,
{8}4v1[8:1]/6v1[8:1],3,4/6,,7-4[8:1]/8-4[8:1],1/6,7/8,,
{8}1/6,3/8,2/4,5/7,1w5[8:1]/8,,
{32}1b,,,,{8},E
