&title=Thêm Một Lần Đau
&artist=HKT
&first=0
&des=NaOH
&clock_count=4
&lv_5=13
&inote_5=(68){4},,,1h[6:1]/8h[6:1],
{12}2h[6:1],,,4h[6:1],,,5h[6:1],,,7h[6:1],,,
1h[6:1],,,3h[6:1],,,5>2[6:1],,,8,7,6,6qq7[3:1],,,1,2,3,4,3,2,1>4[6:1],,,
8h[6:1],,,7h[6:1],,,6h[6:1]/5h[6:1],,,7-3[12:1]/4,,27,2^7[12:1]/7<4[12:1],,,
2b/7b,,3,2>5[12:1]/1,,7,28,,7,7qq8[6:1]/2,,1,27,,2,1-4[12:1],,8,7V58[6:1],,
1,2V41[6:1],,,7,6,5,
5<8[12:1],,3,25,,1,2pp1[6:1]/7,,8,27,,
8,73,4,5,2>5[12:1]/6<1[12:1],3,7,2-6[12:1]/6,,,2b/7b,,
7,8<5[12:1]/1,,1,28,,2,3q5[6:1]/6,,7,36,,7,38,2,1,2qq2[6:1]/7,3,6,2>5[12:1]/5,,,
6,7,8,3>8[12:1]/7,,6,35,,6,7^2[12:1]*-5[12:1],,68,7,,4,
25,1,8,27,6,2,1>4[12:1]/5<8[12:1],,,1b/5b,,,8v3[12:5]*v5[12:5],,,,
,,,,,2,3,4,5^3[12:1]/7^5[12:1],,8,75,,1,2^4[12:1]/4^6[12:1],,1,24,,8,
7h[4:1],5,4,3h[6:1],4,5,4-2[12:1]/7-5[12:1],,8,47,,1,
2h[4:1]/4,,4,4h[4:1],,6,6qq2[4:1],,8,8,,6,5pp2[12:5]*>8[12:5],,,
,,,,,,2,3,4,5V38[6:1]/6,,8,57,,6,5V72[6:1]/3,,2,35,,4,
56,7,8,12,3,4,5p1[12:1]/6q2[12:1],,7,56,,3,
4h[4:1]/5,6,7,8h[4:1],3,2,1q4[4:1],,,8,7,6,5<3[4:1],,,,,,4q1[8:1],,,,,8,
37,26,15,8>4[6:1]/4,,5,6,7,8,1<5[6:1]/5,,4,4h[6:1],,,46,37,28,1w5[12:1],,,1,,2,
35,46,57,48,37,26,1-5[12:1]/5-1[12:1],,37,15,,26,1h[6:1]/5h[6:1],,,
1b/5b,2b/6b,3b/7b,4bp8[12:1]/8bp4[12:1],,26,4b/8b,,
26,1q5[12:1]/5,,2,7p3[12:1]/1,6,6,8>6[6:1]/7,,,6,7,8,
1>4[12:1]/7,2,8,7p3[12:1]/1,6,2,1V35[6:1]/7,,,16,7,8,
8p4[12:1]/4,,7,48,3,2,1-4[12:1]*-6[12:1],,8,1,,5,
34,25,16,8-4[12:1]/7-3[12:1],56,43,7b<4[12:1]/8b>3[12:1],,,7b/8b,,
25,6q2[12:1]/1,,3,4p8[12:1]/6,,3,7V51[6:1]/4,,,2,3,4,
8-4[12:1]/5,4,3,2-5[12:1]/8,1,1,2V46[6:1]/8,,,7,8,1,
8p4[12:1]/4,,3,28,1,2,8-5[12:1]*-3[12:1]/3,,1,8,,4,
35,26,17,46,37,28,1bV35[8:1]*V75[8:1],,,1bv4[12:1]*v6[12:1],,,1b,,,
2V41[6:1],,1-5[12:1],1,,6,6<4[4:1],,4,4>6[4:1],,6,6qq8[4:1],,2,2qq4[4:1],,,,,,
7V58[6:1],,8-4[12:1],8,,3,3>5[6:1],,4,4-8[12:1],,,
4-1[12:1]/3,,2,45,,7,8-3[12:1],3-6[12:1],6-1[12:1],8b/2h[6:1],,,
3-7[12:1],,2,4V63[6:1]/3,,3-7[12:1],2,,
1,1>7[4:1],,7,7<1[4:1],,1,1pp4[4:1],,5,5pp8[4:1],,,,,,
3V14[6:1],,4-8[12:1],4,,7,7<1[6:1],,8,8qq6[12:1],,,
8pp2[12:1]/1,,1,87,,7,7-4[12:1]/5,4-1[12:1]/2,1-6[12:1]/7,7b/2h[6:1],,,
4bqq1[4:3]*pp7[4:3],,,,,,,,,,,,,,,
