&title=GOODRAGE
&artist=EBIMAYO
&first=-0.12
&des=JFish
&des_5=JFish
&lv_5=14
&inote_5=(222){4},1bh[4:1]/7bh[4:1],{16},,,,2,3,4,5,
8,7,6,5,{4}2-5[8:1],{8}2,7s3[4:1],,,,,{4}2bh[4:1]/8bh[4:1],
{16},,,,7,6,5,4,
1,2,3,4,{4}7-4[8:1],{8}1,2q5[4:1],,7,
{4}7,8bh[4:1],2,{16}2,3,4,5,
8,7,6,5,{4}1-5[8:1],{8}6,6z2[4:1],,,,,{4}3h[4:1],
B7,5h[4:1],
B2/B1,4h[8:1],4h[8:1],{8}5/4,5/4,
5/4,5/4,{4}6-8[8:1],3/6,6-1[8:1],
6/3,2-5[8:1],{8}8,8z4[4:1],,,{4}2b,
1-3[8:1],1/7,1-5[8:1],
1/7,8-6[8:1],{8}3,3-5-1[4:1],,,{4}7b,
8-4[8:1],8/2,8-6[8:1],
8/2,3-7[8:1],{8}5,5s1[4:1],,,{4}2b,
2h[4:1],B6,7h[4:1],
B3/B4,{8}1,1,1,1,1pp3[8:1]/8<5[8:1],1/8,
{4}1/8,2x-4[8:1],2x-6[8:1],2x-8[8:1],
2x,{8}4x/7x,{16}6,5,{8}6,4,5/3,5/3,
2,2,{4}1x-3[8:1],1x-5[8:1],1x-7[8:1],
1x,{8}3xh[4:1],4,5,6,4/7,{16}5,6,
{8}5,4/7,7bx,7,8,8,1,1,
2,2,3,3,4,4,5,5,
4,4,{16}4,5,4,5,4,5,4,5,4x,5,3,6,
4-1b[8:1],5,3,6,{4}4bx,,Cfh[4:1],
A6/B6/B5/A5/B4/A4/B3/A3,2-4[8:1],{8}1,1,{16}8x,7,6x,5,
{8}2x/4xh[4:1],2x,{4}1b>3-8[4:1],{8}8<6-2[8:3],8,,5,
5,5,{4}6h[4:1],{16}5x,4,3x,2,{8}8x/1h[4:1],8x,
{4}7x,{8}6/3,{16}4,5,{8}4,6/3,5-1[8:1],5,
{4}4,2h[4:1],{8}1,1,{16}1x,8,7x,6,
{8}3x/5h[4:1],3x,{4}2bxh[4:3],{8}C,C,C,C,
{4}Cf,7-3[8:1],{8}1,1,{4}2-5[8:1],
{8}8,8,{4}6-1[8:1],{8}3,3,{4}4-8b[8:1],
{8}6,6,{4}7h[4:1],{8}8,8,{16}8x,1,2x,3,
{8}5x/4h[4:1],5x,{4}6b-2>4[4:1],{8}4-8<5[8:3],4,,2,
2,2,{4}1h[4:1],{16}8x,7,6x,5,{8}3x/4h[4:1],3x,
{4}2x,{8}2/5,{16}3,4,{8}3,2/5,4-8[8:1],4,
{4}3,2h[4:1],{8}1,1,{16}1x,8,7x,6,
{8}4x/5h[4:1],4x,{4}3bxh[4:3],{8}C,C,C,C,
{4}Cf,7<4[8:1],{8}3,2,{4}1>4[8:1],
{8}8,7,{4}6<1[8:1],{8}4,3,{4}2-4[8:1]*-6b[8:1],
,8-6[8:1],{8}1,1,{16}1x,2,3x,4,
{8}6x/5xh[4:1],6x,{4}7-3[8:1],{8}1s5[4:1],1,,6,
6,6,{4}7h[4:1],{16}8x,1,2x,3,{8}5x/4xh[4:1],5x,
{4}6x,{8}7/4,{16}6,5,{8}6,7/4,5-1[8:1],5,
{4}6,8h[4:1],{8}1,1,{16}1x,2,3x,4,
{8}6x/5xh[4:1],6x,{4}7bxh[4:3],{8}C,C,C,C,
{4}Cf,8<5[8:1],{8}1,2,{4}3>8[8:1],
{8}4,5,{4}6>3[8:1],{8}7,8,{4}1<6[8:1],
,5x/3h[8:1],4/6h[8:1],{16}5,6,5,6,
{8}5h[4:1],7,{4}7-5[8:1],{8}8,8-4[8:1],,6,
6,6,{4}5/7h[8:1],6/4h[8:1],{8}5-1[8:1],5,
{4}3,{16}3,4,3,4,{8}3h[4:1],5,6-1[8:1],4,
{4}6,8/2h[8:1],3/5h[8:1],{16}6,4,6,4,
{8}6h[4:1],3,{4}2-4[8:1],{8}1,1,1-5[8:1],1,
{4}1,3>8[8:1],{8}5,5,{4}6<1[8:1],
{8}4,4,{4}3>8[8:1],{8}5,5,{4}6<1[8:1],
{8}4,4,{4}3bh[4:3],{2}E5,
{4}C,7h[4:3],{2}E1,
{4}E3,1h[4:3],{2}B7,
{4}E6,5h[4:3],{2}E4,
{4}E3,2-5-8[2:1],{2}A7,
{4}B5,6q4[2:1],{2}E2,
{4}C,2-6>5-3[2:1],{2}A8,
{4}D7,Cfh[4:3],{8}E2/B1/B2,B1/E2/B2,B1/E2/B2,B1/E2/B2,
{4}B1/E2/B2,6-8[8:1],{8}4,4,{4}6-1[8:1],
3,6-2[8:1],{8}4,4,{4}6-8[8:1],
3,3-1[8:1],{8}5,5,{4}3-8[8:1],
6,3-7[8:1],{8}5,5,{4}3-1[8:1],
6,7-5[8:1],{8}1,1,{4}7-4[8:1],
2,7-3[8:1],{8}1,1,{4}7-5[8:1],
2,{8}3-8[8:1],4,5,6-1[8:1],5,4,
{4}3,3h[4:3],{8}C,C,C,C,
{4}Cf,7h[4:1],{8}8,8,{16}8x,1,2x,3,
{8}5x/4xh[4:1],5x,{4}6x-8[8:1],{8}5,5-1[8:1],,7,
7,7,{4}2h[4:1],{16}8x,7,6x,5,{8}3x/4xh[4:1],3x,
{4}2x,{8}2/5,{16}3,4,{8}3,2/5,4-8[8:1],4,
{4}3,1h[4:1],{8}8,8,{16}8x,7,6x,5,
{8}3x/4xh[4:1],3x,{4}2x-4[8:1],{8}1,1-5[8:1],,3,
3,3,{4}6h[4:1],{16}5x,4,3x,2,{8}8x/1xh[4:1],8x,
{4}7x,{8}7/4,{16}6,5,{8}6,7/4,5-1b[8:1],5,
{4}6,{8}8,8,1,1,2,2,
3,3,4,4,5,5,6,6,
7,7,{16}8x,1,8,1,8,1,8,1,8,1,7,2,
8,1,7,2,{4}8-6[8:1],8-3[8:1]*>2[8:1],8w4b[8:1],
8bx,{8}2,{16}3,4,{8}2h[8:1],5,6/3,{16}4,5,
{8}3,7h[4:1],,1,{4}1-5[8:1]/8-6[8:1],1b-3[8:1]/8b-4[8:1],
1b/8b,{8}4x/7x,{16}6,5,{8}6,3,{16}3,4,{8}2h[4:1],
8,8,2-4[8:1],6-8[8:1],2,6,1-5[8:1],5-2[8:1],
{4}1b,7,{16}6,5,{8}7,{16}4,5,{8}3h[8:1],
8,8,7,2v5[8:1],6-1[8:1],2-4-8b[4:1],,,,,7x/5x,
6,6,5x/3x,4,4,
2x/8x,8x/2x,{4}1bxh[8:1],{16}2,8,2,8,3,7,3,7,
4,6,4,6,{8}3bx,{16}6,5,{8}7h[8:1],4,6/3,{16}4,5,
{8}3,7h[4:1],,1,{4}1-3[8:1]/8-4[8:1],1b-5[8:1]/8b-6[8:1],
8b/1b,{8}5x/2x,{16}3,4,{8}3,6,{16}6,5,{8}7h[4:1],
1,1,7-5[8:1],3-1[8:1],7,3,8-4[8:1],4-7[8:1],
{4}8b,2bv5[8:1],{8}6,7,{4}8b<5[8:1],
{8}1,1b-3[8:1],,1b-5[8:1]*-6[8:1],,1b,,3,
3,4,5x/2x,1,6,3,8x/4x,7,
2,5,6x/4x,6/4,4/6,6/4,4b-1[8:1]/6b-1[8:1],4b/6b,
{4}6b/4b,2x-4[8:1],2x-6[8:1],2x-8[8:1],
2x,{8}4x/7x,{16}6,5,{8}6,4,5/3,5/3,
2,2,{4}1x-3[8:1],1x-5[8:1],1x-7[8:1],
1x,{8}3xh[4:1],4,5,6,4/7,{16}5,6,
{8}5,7,1,1,2/4,2,3/5,3,
4/6,4,5/7,5,6/8,6,7/1,7,
8/2,8,{16}1/2,8,7,6,5/4,3,2,1,{32}8x,1x,2x,3x,4x,5,6,7,
8,1,2,3,{8}4,{4}8xp5b[4:1],,,{1}1bw5b[8:1],
E
