&title=AMA
&artist=t+pazolite & MASAKI
&first=0.022
&des=ツクヨミ
&lv_5=15+
&inote_5=(256)
{1},
{4}4>5[4:17],,,,7,,
{8},6,,,,3,,,
{32},2,,,,,,,,,,,,1,,,,,,,,,,8,,,,,,,,,1,,,,,,,,2,,,,,,,,3,,,,,,,,4,,,,,,4,,,,,,,,3,,,,,,2,,,,
{32}1,28,37,46,5b,,,,
{8}3,3h[8:2],,4,4h[8:2],,5-2[8:1],,8,,1,1h[8:2],,,28,,35,,78,7h[8:2],,5-1[8:1],,3,3h[8:2],,8,,
{8}1,1,,3/4h[8:2],,6,56,,8-4[8:1],,
{8}8/1<5[8:3],,,5>1[8:3],,,8,,8,,
{8}7,57,,3-7[8:1]/5,,,1,,1-5[8:1],,
{8}1/8>4[8:3],,,4<8[8:3],,,1,,1,,
{8}2,42,,6-2[8:1]/4,,,8,,8-4[8:1],,
{8}8/1<5[8:3],,,5>1[8:3],,,8,,8h[8:2],,1,17,,4,3/5-1[8:1],,7,,7-3[8:1],,71,,2,25,,47,47,,15,,15,15,,37,37,,48,26,
{8}4/8-4[8:1],,18,,
{16}3,5,3,5,2>7[8:2],,,,7,,,,,,,,
{8}1-5[8:1],,81,,
{16}6,4,6,4,7<2[8:2],,,,2,,,,,,,,8,,,,
{16}1,7,1,7,1-5[8:1],,,,12,,,,
{16}8,2,8,2,8-4[8:1],,,,87,,,,
{16}1,7,1,7,1-5[8:1],,,,12,,,,
{16}8,2,8,2,8-4[8:1],,,,87,,,,
{8}6-8[8:1],6,5-1[8:1],5,4-2[8:1],4,8-4[8:1],8,7-5[8:1],7,1-3[8:1],1,8,8,
{16}4,5,4,5,4,5,4,5,3,6,3,6,3,6,3,6,2,7,2,7,
{4}1bp8[8:6]/8b<1[4:10],,,,,,8q1[8:8],,,,,,8,,
{8}7b,,5,5h[8:2],,4,4h[8:2],,3,,24,,1b,,4,4h[8:2],,5,5h[8:2],,6,,75,,8b,,
{16}3,,4,,3,4,3,4,3,4,3,4,3,,4,,2,,5,,1,8,7h[8:3],,,,
{8}6,6h[8:2],,
{12}8,1,2,3,4,5,6,7,8,
{8},71,,6,4,,3,5,2,5,1,5,8b,56,56,,35,35,,78,78,,46,46,5h[8:6],4,6,3,7,2,8,1,1h[4:4],
,,,
{8}8,2,7,3,6,4,15,15,26,26,
{16}4-8[8:1],8,4,8,4b,,,,
{16}7,,7,,8,1,2,3,45,,6,5,6,,3,4,3,,6,5,7,,7,,28,,1,,,,2,,3,,43,,5,6,7,8,1-5[8:1]/2,,,,
{16}18,,,,7,,4,,
{12}6,1,5,2,6,1,5,2,6,1,2,3,45,6,7h[24:5],
{8},1,
{12}7,5,7,3,4,3,7,8,7,2,1,2,
{8}3b/8b>3[8:1],,4,4-8[8:1],,7,7<4[8:1],1,2,3,3>8[8:1],4,5-1[8:1]/3,,5/7<4[8:1],,78,,
{16}1,,,5,35,,4,,6,,7,,
{16}8,,8,,8,,8,4,83,2,81,,8,,8,,8,,8,,
{32}8,7,6,5,4,3,2,1,
{1}8V27[8:7]*>7[8:7],
{4},,1b>8[4:17]/8b,,,,,,,,,,,,,,,,,,,,
{8}3,3h[8:2],,4,4h[8:2],,5h[8:2],,6,,
{8}6,6h[8:2],,5,5h[8:2],,4h[8:2],,3,,
{8}2,2h[8:2],,1,1h[8:2],,8h[8:2],,7,,
{8}7,7h[8:2],,8,8h[8:2],,1,12,,4,34,,6,57,,7,68,,1<6[8:1]/8,,12,,
{8}3,42,,2,31,,8>3[8:1]/1,,87,,
{8}6,57,,7,68,,1<6[8:1]/8,,12,,
{8}3,42,,2,31,,8,8,7,64,5h[8:1]/3,2-5[8:1],,8,8-4[8:1],,3,3-8[8:1],,1,1-5[8:1],,2,2-6[8:1],,7,7-4[8:1],,3,3,26,26,17,17,
{1}8bpp3[4:6]*pp5[4:12],,
{4},
{16}2,1h[16:23],,,,,,,,,,,,,,,,,,,,,,,8,7h[16:19],,,,,,,,,,,,,,,,,,,,,,,
{8}1s5[8:6]/8z4[8:6],,,,,,,,,,2b/7b,,
{8}2-5[8:1],1,2,7>2[8:1],8,7,
{16}4,5,6,7,8,1,2,3,45,,6,5,6,,57,,8-4[8:1],,2,,8/1<6[8:1],,,,1/5-8[8:1],,,,
{8}8,1,2>5[8:1],,12,8,
{16}8,7,6,5,7,6,5,4,3,2,1,8,7,,68,,5-1[8:1],,,,5-3[8:1]*-7[8:1],,,,5,,,,
{16}28,,37,,6,5,6,,3,4,3,,2-5[8:1]/5-1[8:1],,,,25,,,,8,,26,,3,4,3,,6,5,6,,47,,,,
{8}38,2,1-6[8:1],7,1,8-4[8:1],4,8,
{16}3,2,1,,6v1[8:1],,1<3[8:4],,6b,,,,,,,,,,,,
{8}2h[8:2],,1h[8:2],,8b,,45,3/6h[8:5],,7,,,8,,38,,54,45,36,6/3h[8:5],,2,,,1,,61,,
{12}8,1,2,3,4,5,
{8}6/8-2[8:1],,8-4[8:1],,8,,
{16}1,,37,,
{12}5,5,4,6h[8:6],,,1,1,1,1z5[8:4],1s5[12:5],1,1,,,,,,,,,
{24}7,6,5,4,,,,,,2,3,4,5h[8:2],,,,,,8>6[8:3],7,6,5h[8:3],,,,,,,,,,,,,,,8,,,,,,
{8}46,35,2<4[8:3]/4,,7h[8:4],,,,,,
{4}25,47,24,57,23,67,
{16}18,,18,27,36,,18,,18,27,36,,18,,18,27,36,,
{8}18,18,18,
{4}1-5[4:4]*-5[4:4]/8,2,8,3,7,4,8-4[4:4]*-4[4:4],7,1,6,2,5,1,
{12}24,35,46,7,,,8,,,57,46,35,2,,,
{12}1,1,1,1,1,1,1,1,1,
{32}2,3,4,5,6,7,8,1,2h[8:4],,,,,,,,
{24}8h[96:1],1,,3,4,5,6bz2[4:6],,,,,,
{1},,
{8}1b/8b,,,,,,
{16}25,,47,,18,,45,,36,,45,,74,,52,,81,,54,,63,,54,,25,,47,,18,,45,,36,,45,,
{8}1>4[8:1],,1<6[8:1],,1-5[8:1],,1,,
{16}7,6,5,4,8,7,6,5,48,,37,,26,,15,,8,1,2,3,4/7-4[8:1],,,,7/3-7[8:1],,,,3/8-3[8:1],,,,8<4[8:2],,,,4,3,2,1,8,7,6,5,
{16}48,,6,5,6,,15,,3,4,3,,37,,2,8,1,,26,,7,1,8,,25,,3,4,3,,47,,6,5,6,,1-3[8:1]/8-6[8:1],,,,1-5[8:1]/8-4[8:1],,,,18,,,,
{16}3,,24,,6,,57,,3,,25,,6<1[8:2],,,,
{12}1,2,3,
{8}4-8[8:1],,4/7-4[8:1],,7/1-5[8:1],,1,,46,46,37,37,28,28,
{16}1,,6,5,6,,4,,7,8,7,,2,,6,5,6,,3,,7,8,7,,16,,2,4,3,,38,,7,5,6,,52,,3,4,3<6[8:1],,,,3/8-4[8:1],,,,8,,,,
{12}2,5,3,7,4,6,1,4,3,8,5,6,37,26,15,4V68[8:2]/8V24[8:2],,,,,,,,,3b/7b,,,,,,,,,
{16}2b-6[8:1],,2,,2/7-1[8:1],,7,,7/3-5[8:1],,3,,3/8-4[8:1],,8,,18,,1,,5,4,6,3,7,2,8,1,7,2,6,3,5,4,6,3,7,2,8,1,7,2,6,3,
{24}5,4,3,2,1,8,
{16}7b-3[8:1],,7,,7/2-8[8:1],,2,,2/6-4[8:1],,6,,6/1-5[8:1],,1,,81,,8,,4,5,3,6,2,7,1,8,2,7,3,6,4,5,3,6,2,7,1,8,2,7,3,6,
{24}4,5,6,7,8,1,
{16}2b,6,2,6,3,5,3,5,2,6,2,6,1,7,1,7,2,8,2,8,3,7,3,7,4,6,4,6,3,5,3,5,2,6,2,6,1,7,1,7,8,8,8,8,8,8,8,8,
{4}8b,,1b,
{8},
{8}2b,,,7b,,,3b,,,6b,,4b,,,5b,,4b,,5b,,4b,,5b,,4b,,5b,
{12},
{12}4b,,5b,,4b,,5b,,4b,,5b,
{8}4b,5b,4b,5b,4b,5b,4b,5b,
{10}4b,5b,4b,5b,4b,5b,4b,5b,4b,5b,
{12}4b,5b,4b,5b,4b,5b,4b,5b,4b,5b,4b,5b,
{14}4b,5b,4b,5b,4b,5b,4b,5b,4b,5b,4b,5b,4b,5b,
{16}4b,5b,4b,5b,4b,5b,4b,5b,
{24}4,5,4,5,4,5,4,5,4,5,4,5,4,5,4,5,4,5,
{32}4b,3,2,1,8,7,6,5,4,3,2,1,8,7,6,5,4,3,2,1,8,7,6,5,
{36}4b,8,4,8,4,8,4,8,4,8,4,8,4,8,4,8,4,8,4,8,4,8,4,8,4,8,4,8b,
&inote_6=(256)
{1},,,,,,,,,,,,,,,,,,,,,,,,,,,,,,,,,,,,,,,,,,,,,,,,,,,,,,,,,,,,,,,,,,,,,,,,,,,,,,,,,,,,,,,,,,,,,,,,,,,,,,,,,,,,,,,,,,,,,,,,,,,,,,,,,,,,,,,,,,,,
{4},,,
{4}1b,,8b,
{8},
{8}2b,,,7b,,,3b,,,6b,,4b,,,5b,,4b,,5b,,4b,,5b,,4b,,5b,
{12},
{12}4b,,5b,,4b,,5b,4b,,5b,,
{8}4b,5b,4b,5b,4b,5b,4b,5b,
{10}4b,5b,4b,5b,4b,5b,4b,5b,4b,5b,
{12}4b,5b,4b,5b,4b,5b,4b,5b,4b,5b,4b,5b,
{14}4b,5b,4b,5b,4b,5b,4b,5b,4b,5b,4b,5b,4b,5b,
{16}4b,5b,4b,5b,4b,5b,4b,5b,
{24}4,5,4,5,4,5,4,5,4,5,4,5,4,5,4,5,4,5,
{32}4b,3,2,1,8,7,6,5,4,3,2,1,8,7,6,5,4,3,2,1,8,7,6,5,
{36}4b,8,4,8,4,8,4,8,4,8,4,8,4,8,4,8,4,8,4,8,4,8,4,8,4,8,4,8b,
