&title=YOUNITHM
&artist=大国奏音
&first=0
&des_1=X CupLid X
&des_2=X CupLid X
&des_3=X CupLid X
&des_4=X CupLid X
&des_5=X CupLid X
&lv_5=14+
&des_6=X CupLid X
&des_7=X CupLid X
&des=X CupLid X
&inote_5=(260)
{16},,,,
,,,,
,,,,
,,,,
{16},,,,
,,,,
,,,,
,,,,
{24}1q8[16:56],8,7,,,,
{16},,,,
,,,,
,,,,
{16},,,,
,,,,
,,,,
,,,,
{16}2h[16:8],,,,
,,,,
,,,,
,,,,
{16}1,,,,
{24}E3,,E4,,E5,,
{16}E6,,,,
,,,,
{16}1-3-7-5[16:20],,,,
,,,,
,,,,
4h[16:12],,,,
{16},,,,
,,,,
,,,,
,,,,
{16}8-4[16:12],,,,
,,,,
2,,,,
2h[16:8],,,,
{16},,,,
E6,,,,
E5,,,,
E4,,,,
{16}2,,,,
5,,,,
1,,,,
6,,,,
{16}4,,,,
8,,,,
3,,,,
4,,,,
{16}1,,,,
6,,,,
5,,,,
8,,,,
{16}2h[16:8],,,,
{24}E4,,E5,,E6,,
{16}E7,,,,
3/8,,,,
{16}2/1,,,,
3,,,,
4,,,,
5/3,,,,
{16}6,,,,
4,,,,
5/7,,,,
8,,,,
{16}5/1,,,,
4,,,,
3,,,,
6v8v6[16:12]/2v4v2[16:12],,,,
{16},,,,
,,,,
,,,,
,,,,
{16}5b/1bh[16:8],,,,
,,,,
4<7[16:4],,,,
,,,,
{16}1>4[16:4],,,,
,,,,
5-1[16:4],,,,
,,,,
{16}3h[16:8],,,,
,,,,
7,,,,
6/4>1[16:4],,,,
{16},,,,
7<4[16:4],,,,
,,,,
2,,,,
{16}5/1h[16:24],,,,
,,,,
4,,,,
4,,,,
{16},,,,
6,,,,
6,,,,
,,,,
{16}5h[16:4],,,,
4h[16:4],,,,
3h[16:4],,,,
1h[16:8],,,,
{16},,,,
8h[16:4],,,,
7h[16:4],,,,
6h[16:4],,,,
{16}4V28[16:8],,,,
,,,,
8V64[16:8],,,,
,,,,
{16}4>7[16:8],,,,
,,,,
7q4[16:8],,,,
,,,,
{16}5<8[16:4],,,,
,,,,
3,,,,
2>5[16:4],,,,
{16},,,,
7>2[16:4],,,,
,,,,
4,,,,
{16}5h[16:4]/3h[16:4],,,,
,,,,
6/2,,,,
4,,5,,
{16}3h[16:4],,,,
5h[16:4],,,,
4,,,,
6,,5,,
{16}7h[16:4],,,,
4h[16:4],,,,
5,,,,
3,,4,,
{16}2h[16:4],,,,
5h[16:4],,,,
4,,,,
6,,,,
{16}Ch[16:8]/7b-3-7b[16:108],,,,
,,,,
,,,,
,,,,
{16}A6h[16:8],,,,
,,,,
,,,,
,,,,
{16}E1h[16:8],,,,
,,,,
,,,,
,,,,
{16}E6h[16:8],,,,
,,,,
,,,,
,,,,
{16}E2h[16:8]/A1h[16:8],,,,
,,,,
,,,,
,,,,
{16}E5h[16:8]/A5h[16:8],,,,
,,,,
,,,,
,,,,
{16}A3h[16:8]/B3h[16:8],,,,
,,,,
,,,,
,,,,
{16}1,2,3,4,
5,6,7,8,
1h,2h,3h,4h,
5h,6h,7h,8h,
{16}5b/1h[16:4],,,,
7h[16:4],,,,
3h[16:4],,,,
5h[16:4],,,,
{16}2,,2,,
4,,4,,
1,,1,,
6,,6,,
{16}3h[16:8],,,,
5,,,,
6,,7,,
4,,3,,
{16}8-4[16:2],,,,
4,,3,,
2>5[16:2],,,,
6,,7,,
{16}8-4[16:2],,,,
3,,,,
2,,2/5-1[16:2],,
,,3,,
{16},,4,,
4/8<4[16:4],,,,
3,,3,,
,,1,,
{16}1b,,6,5,
6,,2b,,
5,4,5,,
3b,,3,,
{16}5b,6,7,8,
2,3,4,5,
8,7,6,5,
3,2,1,8,
{16}5b<8[16:4],,,,
8>3[16:4],,,,
3<6[16:4],,,,
6<1[16:4],,,,
{16}1>4[16:4],,,,
4-7-2-5[16:12],,,,
8,,,,
2,,,,
{16}4h[16:8],,,,
,,,,
5,,5,,
3,,3,,
{16}6/2,,,,
3,4,3,4,
2-6[16:2],,,,
6,,,,
{16}7,8,7,8h[16:3],
7h[16:2],,,,
2,1,2,1h[16:3],
2h[16:2],,,,
{16}6,5,6,5h[16:3],
6h[16:2],,,,
3,4,3,4h[16:3],
3h[16:2],,,,
{16}2,,3,,
4/7,,6,,
5/2,,3,,
4/7,,6,,
{16}5/1x-5[16:2],,1,,
7x<4[16:2],,7,,
8x>3[16:2],,8,,
7x-3[16:2],,7,,
{16}1x,,,,
2/1,,3,,
4-8[16:2],,,,
6,,,,
{16}7h[16:4],,,,
,1,2,3,
4/6-1[16:2],,,,
5,,,,
{16}2,,2-5[16:2],,
1,,2,,
7,,7-4[16:2],,
8,,7,,
{16}2,,2,,
3/1,,3/1,,
7,,7,,
8/6,,8/6,,
{16}5h[16:4],,,,
1,2,3,4,
6,7,8,1,
5,4,3,2,
{16}1/7<4[16:2],,,,
8,,8v3[16:2],,
,,6<1[16:2],,
,,2,,
{16}2>5[16:2],,,,
1,,1v6[16:2],,
,,3>8[16:2],,
,,7,,
{16}7,,,,
C,,,,
{24}6h[24:2],,5h[24:2],,4h[24:2],,
{16}3,,,,
{16}1,,1h[16:4],,
6,,6h[16:4],,
4,,4h[16:4],,
8,,8h[16:4],,
{16}2-6[16:2],,2,,
7-1[16:2],,7,,
3-5[16:2],,3,,
6,,,,
{16}8b,,7h[16:4],,
2,,3h[16:4],,
5,,6h[16:4],,
2,,1h[16:4],,
{16}7-3[16:2],,7,,
2-8[16:2],,2,,
6-4[16:2],,6,,
3,,,,
{16}2bh[16:2],,4,3,
5h[16:2],,3,4,
2h[16:2],,4,3,
5,,,,
{16}7h[16:2],,5,6,
4h[16:2],,6,5,
7h[16:2],,5,6,
4,,,,
{16}8/3,,,,
4/3,,2h[16:2]/5h[16:2],,
,,4h[16:2]/7h[16:2],,
,,6/5,,
{16}6/5,4,3,2,
5,6,7,8,
4,3,2,1,
6,7,8,1,
{16}4,,6-2[16:2]/2-5[16:2],,
,,6/2<4[16:6],,
,,3x,,
,,2,,
{16}B8,B7,B6,B5,
A8,A7,A6,A5,
E1,E8,E7,E6,
E5f,,,,
{16}1,,3-7[16:2]/7-4[16:2],,
,,3/7>5[16:6],,
,,6x,,
,,7,,
{16}B1,B2,B3,B4,
A1,A2,A3,A4,
E1,E2,E3,E4,
E5f,,,,
{16}1,,2-5[16:2]/5-1[16:2],,
,,2/5V73[16:6],,
,,7x,,
,,8,,
{16}8,,7-4[16:2]/4-8[16:2],,
,,7/4V26[16:6],,
,,2x,,
,,1,,
{24}1h[16:8],,,,8,,
,,7,,,,
{16}6h[16:8],,,,
,,,,
{24}3h[16:8],,,,4,,
,,5,,,,
6h[16:8],,,,7,,
,,8,,,,
{24}1b-5[16:4],,,,7,,
,,6,,,,
8b-4[16:4],,,,2,,
,,3,,,,
{24}1b-5[16:4],,,,7,,
,,6,,,,
8b-4[16:4],,,,2,,
,,3,,,,
{24}1bv6[24:4],,,,6,,
,,8,,,,
8bv3[24:4],,,,3,,
,,1,,,,
{16}2/E1f,E8,E7,,
,,,,
6/E5f,E4,E3,,
,,,,
{16}1b/2>6[16:6],,,,
,,6v1[16:4],,
{24}8,,,,7,,
,,7,,,,
{16}2/6b<2[16:6],,,,
,,2v5[16:4],,
{24}4,,,,3,,
,,3,,,,
{24}2/6,,3,,4,,
5/8,,7,,6,,
5/3,,2,,1,,
8/4,,5,,6,,
{16}3b,7,3,7,
3,7,3,7,
3,7,3,7,
3,7,3,7pp1-3v4<5-8[16:57],
{16}E5f/A5/A4,,,,
,,,,
,,,,
,,,,
{16},,,,
,,,,
,,,,
,,,,
{16},,,,
,,,,
,,,,
,,,,
{16},,,,
,,,,
,,,,
,,,,
{16}1x>8[16:56],,,,
,,,,
2x>8b[16:48],,,,
,,,,
{16}3x<8[16:40],,,,
,,,,
4x<8b[16:32],,,,
,,,,
{16}5x<8[16:24],,,,
,,,,
6x<8b[16:16],,,,
7h[16:8],,,,
{16},,,,
,,,,
,,,,
1,,,,
{16}1h[16:8],,,,
,,,,
A6hf[16:56],,,,
,,,,
{16}A3hf[16:96],,,,
,,,,
A5hf[16:56],,,,
,,,,
{16}A4hf[16:64],,,,
,,,,
E6,,,,
E4,,,,
{16},,,,
E6h[16:12],,,,
,,,,
E4h[16:52],,,,
{16},,,,
,,,,
,,,,
,,,,
{16},,,,
,,,,
,,,,
,,,,
{16},,,,
,,,,
,,,,
,,,,
{16},,,,
,,,,
,,,,
,,,,
{16}7bv5v7b[16:44]/3bv1v3b[16:44],,,,
,,,,
,,,,
,,,,
{16},,,,
,,,,
,,,,
,,,,
{16},,,,
,,,,
,,,,
,,,,
{16},,,,
2,,2,,
7,,7,,
1,,1,,
{16}D4f/A3/B3/E4/A4/D5/B4/D3/A2/A5,,,,
,,,,
,,,,
,,,,
{16}D6f/A6/B6/E6/A5/D5/B5/D7/A7/A4,,,,
,,,,
,,,,
,,,,
{16}A2/A1/E2/D2f/E1/D3/D1/E3,,,,
,,,,
A7/A8/E8/D8f/E1/D7/D1/E7,,,,
,,,,
{16}3/5,,3,,
6/4,,6,,
{32}3,4,5,6,7,8,1,2,
{16}3/7,,,,
{16}8b-4[16:2],,8,,
1-3[16:2],,1,,
7-5[16:2],,7,,
8,,8,,
{16}7/1,,2,4,
3h[16:2],,5,4,
6h[16:2],,4,5,
3h[16:2],,6,5,
{16}7,,,,
8/2,,3/7<4[16:2],,
,,2q6[16:2],,
,,8,,
{16}8h[16:4],,,,
1,2,3,4,
5/6,7,8,1,
2,3,4,5,
{16}6/8b-4[16:2],,8,,
5-7[16:2],,5,,
3-1[16:2],,3,,
8-4[16:2],,8,,
{16}3,,,,
2/5,6/3,7/4,8/5,
1-6[8:1]*-4[8:1],,,,
1,,,,
{16}8/2-6[16:2],,,,
2/1,,8,,
1/7-3[16:2],,,,
7/8,,1,,
{16}2x-5[16:2]/4x-8[16:2],,,,
4/2,,,,
7x-3[16:2]/6x-1[16:2],,,,
6/7,,,,
{16}5x>1[16:4],,,,
1x<5[16:4],,,,
5x-1[16:4],4,3,2,
1,,,,
{16}4x<8[16:4],,,,
8x>4[16:4],,,,
4x-8[16:4],5,6,7,
8,,,,
{16}7,,7h[16:2],,
1,,1h[16:2],,
3,,3h[16:2],,
5,,5h[16:2],,
{16}7,8,1,2,
3,4,5,6,
7/1,2,3,4,
5,6,7,8,
{16}1/5,,,,
5>7[16:6],,,,
Cf,,,,
,,,,
{16}4x,,,,
4<2[16:6],,,,
Cf,,,,
,,,,
{16}5,,,,
5>7[16:6],,,,
Cf,,,,
,,,,
{16}4,,,,
4<2[16:6],,,,
Cf,,,,
,,,,
{16}8h[16:2],,3h[16:2],,
6h[16:2],,5h[16:2],,
8h[16:2],,6h[16:2],,
7h[16:2],,5h[16:2],,
{16}1,2,3,4,
1,2,3,4,
5,6,7,8,
5/1,,,,
{16}7/1h[16:2],,6h[16:2],,
3h[16:2],,4h[16:2],,
1h[16:2],,3h[16:2],,
2h[16:2],,4h[16:2],,
{16}8,7,6,5,
8,7,6,5,
4,3,2,1,
4/8,,,,
{16}7,5,7,5,
6,4,6,4,
{24}7,8,1,2,3,4,
{16}5/1,,,,
{16}1b-4[16:2]/2b-5[16:2],,,,
,,,,
8b-5[16:2]/7b-4[16:2],,,,
,,,,
{16}2,4,2,4,
3,5,3,5,
{24}2,1,8,7,6,5,
{16}4/8,,,,
{16}1b-4[16:2]/2b-5[16:2],,,,
B3f,,,,
8b-5[16:2]/7b-4[16:2],,,,
B6f,,,,
{16}1b/2b>5[16:4],,,,
5<8[16:4],,,,
8>3[16:4],,,,
3,,,,
{16}7-4-1[16:8],,,,
2,,,,
1-6-3[16:8],,,,
2,,,,
{16}3V58[16:8],,,,
1,,,,
8V26[16:8],,,,
4,,,,
{16}6>3>8[16:8],,,,
3,,,,
8-4[16:4],,,,
4,,,,
{16}2,,2,,
4,,3,,
3,,1,,
2,,2,,
{16}5,,4,,
4,,8,,
2,,2,,
6,,6,,
{16}1v3[16:2]/7v5[16:2],,,,
,,,,
2v4[16:2]/8v6[16:2],,,,
,,,,
{16}1v3[16:2]/7v5[16:2],,,,
,,,,
2v4[16:2]/8v6[16:2],,,,
,,,,
{16}3/7<4[16:4],,,,
4>1[16:4],,,,
1<6[16:4],,,,
6,,,,
{16}2-5-8[16:8],,,,
7,,,,
8-3-6[16:8],,,,
7,,,,
{16}6V41[16:8],,,,
8,,,,
1V73[16:8],,,,
5,,,,
{16}3<6<1[16:8],,,,
6,,,,
1-5[16:4],,,,
5,,,,
{16}7,,7,,
5,,6,,
6,,8,,
7,,7,,
{16}4,,5,,
5,,1,,
7,,7,,
3,,3,,
{16}8v6[16:2]/2v4[16:2],,8/2,,
,,,,
7v5[16:2]/1v3[16:2],,7/1,,
,,,,
{16}8v6[16:2]/2v4[16:2],,8/2,,
,,,,
7v5[16:2]/1v3[16:2],,7/1,,
,,,,
{16}6bx/2,,6/2bx,,
6bx/2x-5b[16:2],,,,
2/8-4b[16:2],,,,
8/1-3b[16:2],,,,
{16}1/7-5b[16:2],,,,
7/8-4b[16:2],,,,
8/4v7b[8:1]*v1[8:1],,,,
,,,,
{16}6/2>5b[16:2],,,,
7p3b[16:2],,,,
7/2q6b[16:2],,,,
2/8<5b[16:2],,,,
{16}8/3-7b[16:2],,,,
3/1-4b[16:2],,,,
1/5-8b[16:2],,,,
5/7,,,,
{24}2b,,3,,4,,
5/6b,,4,,3,,
2/8b,,3,,4,,
5/6b,,4,,3,,
{24}2/7b,,6,,5,,
4/3b,,5,,6,,
7/1b,,6,,5,,
4/3b,,5,,6,,
{16}2b/7-3[16:2],,7,,
7/1b-5[16:2],,1,,
1/8b-4b[16:2],,8,,
8/2b-6b[16:2],,2,,
{16}2/7b,,7,,
8/1b,,1,,
6b/2,,6,,
5/3b,,3,,
{16}7/3b,,6,5,
4,,2/6b,,
3,4,5,,
7/3b,,6,5,
{16}4,,3,4,
5,,7,,
6b,8,6,8,
6,8,6,8,
{16}6b,,3,4,
5,,7/3b,,
6,5,4,,
2/6b,,3,4,
{16}5,,6,5,
4,,2,,
3b,1,3,1,
3,1,3,1,
{16}4b,5,6,7,
8,1,2,3,
4,5,6,7,
8,1,2,3,
{16}4/1b,8,7,6,
5,4,3,2,
1,8,7,6,
5,4,3,2,
{24}1/4b,5,6,7,8,1,
2,3,4,5,6,7,
8b,7h,6h,5h,4h,3h,
2h,1h,8h,7h,6h,5h,
{32}4h/E2,E3,E4,E5,E6,E7,E8,E1,
D2,D3,D4,D5,D6,D7,D8,D1,
1bx,2bx,3bx,4bx,5bx,6bx,7bx,8bx,
1bx/D2f,2bx/D3f,3bx/D4f,4bx/D5f,5bx/D6f,6bx/D7f,7bx/D8f,8bx/D1f,
{16}1bxv7v5[4:29]*v3v5[4:29],,,,
,,,,
,,,,
,,,,
{16},,,,
,,,,
,,,,
,,,,
{16},,,,
,,,,
,,,,
,,,,
{16},,,,
,,,,
,,,,
,,,,
{16},,,,
,,,,
,,,,
,,,,
{16},,,,
,,,,
,,,,
,,,,
{16},,,,
,,,,
,,,,
,,,,
{16},,,,
,,,,
,,,,
,,,,
{16}E6,,,,
E5,,,,
E4,,,,
D6,,,,
{16}D5,,,,
D4,,,,
E6,,,,
E5,,,,
{16}E4,,,,
B6,,,,
B5,,,,
B4,,,,
{16}B3,,,,
{24}E7,,B6,,B2,,
{16}E3,,,,
E5,,,,
{16}D7,,,,
E8,,,,
E4,,,,
D3,,,,
{16}E2,,,,
E6,,,,
D7,,,,
E1,,,,
{16}D3,,,,
B7,,,,
B2,,,,
E5,,,,
{16},,,,
E6,,,,
E5,,,,
E4,,,,
{24}D7h[16:64],E7h[24:95],B6h[24:94],B2h[16:62],E3h[24:92],D3h[24:91],,,,,,,,,,,,,,,,,,,,,,,,,,,,,,,,,,,,,,,,,,,,,,,,,,,,,,,,,,,,,,,,,,,,,,,,,,,,,,,,,,,,,,,,,,,,,,,,,,,,,,,,,,,,,,,,,,,
E
