&title=Memory Forest
&artist=ETIA.
&first=0
&des=unknown
&lv_4=14
&lv_5=14
&inote_4=(178){1},,
{6}3,4,5,6,5,4,3,4,5,6,5,4,6,5,4,3,4,5,6,5,4,3,4,5,3,4,5,
{4}6h[4:13]/4-8[4:8],,,,,,,,,,2>5[2:1],,,,
{16}8,,7h[4:1]/5,,,,2,3,4h[4:1],,,,2-6[8:1],,,,
{16},,,,,,4,5,4>1[8:1],,,,8,,,,
{16}6,,2>5[8:1]/5,,,,6,7,8-4[8:1],,,,3,,,,
{16},,,,,,4,5,{24}2,3,4,{16}5,,8,,,,
{16}5/6,,8/4,,,,{24}7,6,5,{4}4-8[4:8],,,,,,,,,,2>5[2:1],,,,
{16}1b/5b,,,,4/3,,2b/6b,,,,5/6,,3b/7b,,,,
{16}1/8,,3,4,2,,6,5,7,,1/8h[8:3],,,,3,4,
{16}5-1[8:1],,,,5,,7-4[8:1],,,,7,,1,,,,
{16}2/5,,3,4,3,,3,4,2,5,1>4[8:1],,,,1,,
{16}7h[4:3],,5,,4,,4,,3,,3,,2,,2,,
{16}1-5[8:1],,5-2[8:1],,1,,,,,,7,,7<4[8:1],,,,
{16}7,,1h[8:5],,3,,3,,4,,4,,5,,6,,
{16}4/7,,6,5,6,,6,5,7,4,8,,3,4,3,,
{16}5b/1b,,,,8/7,,2b/6b,,,,1/2,,3b/7b,,,,
{16}1/8,,7,5,6,,2,4,3,,1h[8:3]/8,,,,6,5,
{16}4-8[8:1],,,,4,,2-5[8:1],,,,2,,8,,,,
{16}5/2,,3,4,3,,4,3,5,2,6<1[8:1],,,,6,,
{16}2h[4:3],,3,,4,,4,,5,,5,,6,,6,,
{16}7<4[8:1],,4-8[8:1],,7,,,,,,2,,2>5[8:1],,,,
{16}2,,8h[8:5],,6,,6,,5,,5,,4,,3,,
{16}7/4,,6,5,6,,5,6,4,7,3,,8h[4:1],,,,
{16}1,,3,4,2,,3,,3,4,2,,2,3,4,5,
{16}8,,6,5,7,,6,5,6,5,7,,7,6,5,4,
{16}1,,3,4,2,,3,,3,4,2,,2,3,4,5,
{16}8,,6,5,7,,6,5,6,5,7,,7,6,5,4,
{16}1,,3,4,1,,3,,3,4,1,,2,3,4,5,
{16}8,,6,5,8,,6,5,6,5,8,,7,6,5,4,
{16}1,,3,4,1,,3,,3,4,1,,2,3,4,5,
{16}8,,6,5,8,,6,5,6,5,8,,7,6,5,4,
{16}1,,3,4,3,,7,5,6,4,5,,2,1,2,1,
{16}3,,8,1,8,,2,4,3,5,4,,7,8,7,8,
{16}6,,2,1,2,,5,4,6,3,7,,2,1,2,1,
{16}3,,6,5,6,,3,4,2,4,3,,7,8,7,8,
{16}6,,3,4,3,,{24}7,6,5,{8}4-8[4:8],,,,8,,8,,,8,,,3,,,3,,,3,,2>5[2:1],,,,,,,,
{4}6h[1:1],,,,5h[1:1],,,,4-8[4:5],,,,,,,,3h[1:1],,,,5h[1:1],,,,
{8}4,4h[8:5],,,,,6,6h[8:5],,,1,2,3,4,5>6[1:1],,1,1,,,,,5,5h[8:3],,,4h[8:3],,,3h[8:3],,,
{8}2,2h[8:5],,,,,4,4,3h[64:1],2h[64:1],1h[64:1],8h[64:1],7h[64:1],6h[64:1],4>5[1:1],,8,8,,,,,4,4h[8:3],,,6h[8:3],,,2h[8:3],,,
{8}8,8h[8:5],,,,,5,5h[8:5],,,3,2,1,8,7<8[1:1],,3,3,,,,,7,7h[8:3],,,4h[8:3],,,1h[8:3],,,
{8}3,3h[8:5],,,,,8,8,7h[64:1],6h[64:1],5h[64:1],4h[64:1],3h[64:1],2h[64:1],8<1[1:1],,4,4,,,,,8,8h[8:3],,,2h[8:3],,,6h[8:3],,,
{8}4,4,,,,,7,7h[8:5],,,{32}5,4,3,,{8},,,,,3,3h[8:9],,,,,5,5h[8:6],,,,,,,,,6,6,,,,,4>5[8:14],4,,,,,,,,,,,,,,,,,
{8}1b,,,,8h[2:1],,,,
{16}5,4,3,2,8,7,6,5,2-4[8:1],,4-8[8:1],,2,,6,,
{16}7,6,5,4,3,2q5[16:5],1,8,7h[4:1]/2,,,,,,,,
{16}7,1,8,1,8,,3,4,2,4,3,,6,5,7,4,
{16}8,1,2,3,4/8,5/1,6/2-5[8:1],7/3,8h[4:2]/4,,,,,,,,
{16}1,2,3,4,6,7,8,1,5>2[8:1],,2-6[8:1],,5,,8,,
{16}7,8,1,2,3,4,5,6,7/4,3,2,1,8,7,6,5,
{16}4/8-3[8:1],,3>4[16:5],,8,,4,,5V71[16:3],,,,,,,,
{16}2-5[8:1],,5>7[8:3],,2,,6,,7,6,5,4,3,,,,
{16}1,4,1,5,1,6,1,7,2-8[8:1],,8-4[8:1],,2,,6,,
{16}5,6,7,8,6,5,4,3,2,1,4,3,2,1,8,7,
{16}3,5,3,4,3,2,3,1,3-8[8:1],,8-4[8:1],,3,,7,,
{16}6,7,8,1,2,3,4,5,6/1,8,7,6,5,4,3,2,
{16}1-6[8:1],,6<5[16:5],,1,,5,,4V28[16:3],,,,,,,,
{16}7-4[8:1],,4<2[8:3],,7,,3,,2,3,4,5,6,,,,
{16}4,8,3,7,2,6,1,5,8,7,6,5,4/8,3/7,2/6,1/5,
{16}8bV24[2:1]`4bV68[2:1],,,,,,,,,,,,,,,,
{16}3/5h[4:6],,,,,,3,,,,,,3h[4:3],,,,,,,,,,,,,,,,,,,,
{16}4h[4:6]/5,,,,,,5,,,,,,5-8[4:2],,,,,,,,,,,,,,,,,,,,
{16}3h[4:6]/7h[4:6],,,,,,,,,,,,,,,,,,,,,,,,,,,,,,,,
{16}3h[4:1]/7h[4:1],,,,,,2h[4:1]/6h[4:1],,,,,,1h[8:3]/5h[8:3],,,,,,,,
{16}5/1,2/6,3/7,4/8,{24}5/1,2,3,4,5,6,{8}1V36[1:1]/7,1s5[8:7],,
&inote_5=(178){1},,
{6}3,4,5,6,5,4,3,4,5,6,5,4h[96:1],6,5,4,3,4,5,6,5,4,3,4,5,3,4,5,
{4}6h[4:13]/4-8[4:8],,,,,,,,,,2>5[2:1],,,,
{16}8,,7h[4:1]/5,,,,4,,4h[4:1],,,,2-6[8:1],,,,
{16},,,,,,4,5,4>1[8:1],,,,8,,,,
{16}7,,7<4[8:1],,,,1,,1-5[8:1],,,,6,,,,
{16},,,,,,4,5,{24}2,3,4,{16}5,,8,,,,
{16}5/6,,8/4,,,,{24}7,6,5,{4}4-8[4:8],,,,,,,,,,2>5[2:1],,,,
{16}1b/5b,,,,4/3,,2b/6b,,,,5/6,,3b/7b,,,,
{16}1/8,,3,4,2,,6,5,7,,1/8h[8:3],,,,3,4,
{16}5-1[8:1],,,,5,,7-4[8:1],,,,7,,1,,,,
{16}2/5,,3,4,3,,3,4,2,5,1>4[8:1],,,,1,,
{16}7h[4:3],,5,,4,,4,,3,,3,,2,,2,,
{16}1-5[8:1],,5-2[8:1],,1,,,,,,7,,7<4[8:1],,,,
{16}7,,1h[8:5],,3,,3,,4,,4,,5,,6,,
{16}4/7,,6,5,6,,6,5,7,4,8,,3,4,3,,
{16}5b/1b,,,,8/7,,2b/6b,,,,1/2,,3b/7b,,,,
{16}1/8,,7,5,6,,2,4,3,,1h[8:3]/8,,,,6,5,
{16}4-8[8:1],,,,4,,2-5[8:1],,,,2,,8,,,,
{16}5/2,,3,4,3,,4,3,5,2,6<1[8:1],,,,6,,
{16}2h[4:3],,3,,4,,4,,5,,5,,6,,6,,
{16}7<4[8:1],,4-8[8:1],,7,,,,,,2,,2>5[8:1],,,,
{16}2,,8h[8:5],,6,,6,,5,,5,,4,,3,,
{16}7/4,,6,5,6,,5,6,4,7,3,,8h[4:1],,,,
{16}1,,3,4,2,,3,,3,4,2,,2,3,4,5,
{16}8,,6,5,7,,6,5,6,5,7,,7,6,5,4,
{16}1,,3,4,2,,3,,3,4,2,,2,3,4,5,
{16}8,,6,5,7,,6,5,6,5,7,,7,6,5,4,
{16}1,,3,4,1,,3,,3,4,1,,2,3,4,5,
{16}8,,6,5,8,,6,5,6,5,8,,7,6,5,4,
{16}1,,3,4,1,,3,,3,4,1,,2,3,4,5,
{16}8,,6,5,8,,6,5,6,5,8,,7,6,5,4,
{16}1,,3,4,3,,7,5,6,4,5,,2,1,2,1,
{16}3,,8,1,8,,2,4,3,5,4,,7,8,7,8,
{16}6,,2,1,2,,5,4,6,3,7,,2,1,2,1,
{16}3,,6,5,6,,3,4,2,4,3,,7,8,7,8,
{16}6,,2,1,2,,{24}7,6,5,{16}4-8[4:8],,2,,6,5,6,5,7,,2,1,2,,5h[96:1],,6h[96:1],,7h[96:1],,1h[96:1],,2h[96:1],,3h[96:1],,,,,,3,,,,,,3,,,,{8}2>5[2:1],,,,,,,,
{4}6h[1:1],,,,5h[1:1],,,,4-8[4:5],,,,,,,,3h[1:1],,,,5h[1:1],,,,
{8}2-6[8:1],3-5[32:3],,,,,8-4[8:1],7-5[32:3],,,1,2,3,4,5pp1[8:13],,
{8}2-4[8:1],2,,,,,5>2[8:1],5,,,3,,,4h[8:3],,,
{8}7-3[8:1],6-4[32:3],,,,,1-5[8:1],2-4[32:3],,,,{16}7,8,7<4[8:1],,,,7qq3[8:13],,,,
{8}2-8[8:1],2,,,,,1>4[8:1],1,,,2,,,1h[8:3],,,
{8}8-4[8:1],7-5[32:3],,,,,2-6[8:1],7-1[32:3],,,4,3,2,1,8qq4[8:13],,
{8}3-1[8:1],3,,,,,8>3[8:1],8,,,2,,,1h[8:3],,,
{8}3-7[8:1],4-6[32:3],,,,,8-4[8:1],5-7[32:3],,,,{16}2,1,2>5[8:1],,,,2pp6[8:13],,,,
{8}7-1[8:1],7,,,,,8<5[8:1],8,,,7,,,8h[8:3],,,
{8}2v5[8:1],2-4[32:3],,,,,8,8h[8:5],,,{32}5,4,3,,,,,,{8},,,,
{8}6v1[8:1],6-8[32:3],,,,,3,3h[8:3],,,4h[8:3],,,5h[8:3],,,
{8}8-4[8:1],8-6[8:1],,,,,2-4[8:1],3-5[8:1],,,,{16}8,1,7<4[8:1],,,,{8}7,,
{8}2h[1:1],,,,,,,,8b,,,,8h[2:1],,,,
{16}5,6,7,8,1,2,3,4,7h[4:1]/5-1[8:1],,,,,,,,
{16}7,6,5,4,3,2q5[16:5],1,8,7h[4:1],,,,,,,,
{16}7,1,8,1,8,,3,4,2,4,3,,6,5,7,4,
{16}8,1,2,3,4/8,5/1,6/2-5[8:1],7/3,8h[4:2]/4,,,,,,,,
{16}4,3,2,1,7,6,5,4,1pp5[16:5],,,,6,,,,
{16}7,8,1,2,3,4,5,6,7/4,3,2,1,8,7,6,5,
{16}4/8-3[8:1],,3>4[16:5],,8,,,,4-8[16:3],,,,,,,,
{16}2-5[8:1],,5>7[8:3],,2,,,,7,6,5,4,3,,,,
{16}1,4,1,5,1,6,1,7,2qq3[16:5],,8,,2,,,,
{16}5,6,7,8,6,5,4,3,2,1,4,3,2,1,8,7,
{16}3,5,3,4,3,2,3,1,3-8[8:1],,8-4[8:1],,3,,,,
{16}6,7,8,1,2,3,4,5,6/1,8,7,6,5,4,3,2,
{16}1-6[8:1],,6<5[16:5],,1,,,,5-1[16:3],,,,,,,,
{16}7-4[8:1],,4<2[8:3],,7,,,,2,3,4,5,6,,,,
{16}4,8,3,7,2,6,1,5,8,7,6,5,4/8,3/7,2/6,1/5,
{16}8bV24[2:1]`4bV68[2:1],,,,,,,,,,,,,,,,
{16}3/5h[4:4],,,,,,3,,,,,,3,,,,,,,,,,2,3,4-8[8:1],,5,,4,,,,
{16}6h[4:6],,,,,,5,,,,,,5,,,,,,,,,,1,2,3,4,5,,7,,1/8,,
{16}2h[4:6]/6h[4:6],,,,,,,,,,,,,,,,,,,,,,,,,,,,,,,,
{16}3h[4:1]/7h[4:1],,,,,,2h[4:1]/6h[4:1],,,,,,1h[8:3]/5h[8:3],,,,,,,,
{16}5/1,2/6,3/7,4/8,{24}5/1,2,3,4,5,6,{8}1V36[1:1]/7,1s5[8:7],,
