&title=境界の彼方
&artist=茅原実里
&first=0.08
&des=不愉快です
&clock_count=4
&lv_5=13
&inote_5=(184){4},,,,,,,,3,
3h[4:1],{2}5h[2:1],
{4}4,4h[4:1],{2}6h[2:1],
{4}5,5-3[4:1],{2}7h[2:1],
{4}4,4>1[4:1],{2}8h[2:1],
{4}2,2h[4:1],{2}4h[2:1],
{4}1,1h[4:1],{2}7h[2:1],
{4}8,8>3[4:1],{2}6h[2:1],
{1}5pp5[2:1]*qq5[2:1],
{4}7b/2b>5[8:1],1,8<5[8:1],4,
2<6[4:1],6>2[4:1],2<6[4:1],6,
4-8[8:1],3,{16}2,1,2,1,2,1,2,1,
{8}2,{16}6,5,{8}7,{16}3,4,{8}2,1,8-4[8:1],7,
{2}6bpp3[2:1],2,
{4}1-5[8:1],5,{2}7-1[8:1]*-2[8:1],
{4}3b/4b<7[8:1],{8}2,1,{4}8,6b/5b>2[8:1],
{8}7,8,{4}1<3[4:1],7/1,{8}8,1,
{4}2b,{8}5,4,7,7,{4}5h[4:1],
{8}1,2,4,4,{4}3h[4:1],{8}7,8,
{4}6/1,{8}3,4,1,1,{4}6h[4:1],
{8}5,7,2,2,1/8,1/8,{4}1/8-4[8:1],
{2}3b,{4}3h[4:1],4h[4:1],
{2}5p3[2:1],{4}8,8<5[4:1],
{2}3,{4}1,1>4[4:1],
{1}4qq5[2:1]*<1[2:1],
{4}5/7,4h[4:1],{2}6h[4:1],
{4}7/1,2h[4:1],{2}4h[4:1],
{4}7/5,5h[4:1],{2}3h[4:1],
{4}4/2,7/8,{8}6,5,4,3,
{4}1b-6[8:1],{8}3,2b-5[8:1],,6,{4}7bqq4[8:5],
,3,2,1,
8b-4[8:1],{8}6,7b>2[8:1],,4,{4}3bpp8[8:5],
,8,7,6,
5b-1[8:1],{8}2,4b-8[8:1],,8,{4}6bpp4[8:5],
,3,2,1,
{2}6b/8b>4[16:3],1<5[16:3],
8q4[8:1]*p4[8:1],{4}2/6,{8}3,7,
{4}5b-2[8:1],{8}6,6,{4}1-5[8:1],1/8,
6-3[8:1],{8}2,2,{4}4-8[8:1],4/3,
{8}2-4[8:1],2,5,5,1-5[8:1],1,6,6,
8-4[8:1],8,7,7,{16}2,1,2,1,{4}2>7[4:1],
7b,{8}8,8,{4}5-2[8:1],6,
4<7[8:1],4/1-5[8:1],1/8>3[8:1],8/4>7[4:1],
5b,{8}6,6,{4}8-3[8:1],7,
1-7[8:1],2/1,6/8-4[8:1],7/8,
3/6-3[8:1],{8}2,1,{4}5/8-5[8:1],7,
4/3-6[8:1],{8}7,8,{4}4/1,8<5[8:1]/5>2[8:1],
8/5pp5[4:1],1,{8}2,4<2[4:1],3,6b/4b,
,5h[8:1],3h[8:1],4h[8:1],{16}2,1,2,1,{4}2<5[4:1],
6b,{8}8,8,{4}5-1[8:1],6,
4<7[8:1],4/2-6[8:1],2/8>6[16:5],8/4h[2:1],
,7p3[16:3],2,{8}1,4<2[16:5],
,2,3,4h[8:3],,1,{4}1<6[8:1],
{8}3b,3h[8:1],5,5h[8:1],{4}8>3[8:1],{8}6b,6h[8:1],
4,4h[8:1],{4}1V75[24:5]*<3[16:5],{2}1,
{4}1b/7b,{8}3-5[8:1],3,6,6,2-6[8:1],2,
7,7,1-5[8:1],1,8,8,{4}4>1[8:1]/8<5[8:1],
{8}4bpp5[16:7]/8bpp1[16:7],,,,,,,4h[4:1],
,2,,6h[4:1],,5,,,{4}2/4,
{8}7,5h[4:1],,4h[4:1],,3,
{4}3/5,7/6,2/1,{8}8/7<3[2:1],7/8,
,,,,{4}2,2,
{2}5h[2:1],{4}4,4,
{2}6h[2:1],{16}5h[16:5],,,,,7h[16:5],,,,,{8}2h[#0.5706482],
{16},,,,,(92)4pp4[16:21],,,,8pp8[16:17],
E
