&title=Defection
&artist=TeddyLoid
&first=-1.443
&des=gl
&lv_5=13+
&des_5=gl
&inote_5=
(80){4},,,,{1}1>4[2:1]/5<8[2:1],
8-5<7[2:1]/4-1>3[2:1],
4-2-5[2:1]/8-6-1[2:1],
4p8>3[2:1]/8p4<7[2:1],
{8}4/6,{16}2-5[8:1],2,{8}6,2,{16},,6-1[8:1],6,{8}4,6,
{16},,3/4,3/4,{8}6/2,2/7,{32}1,2,3,4,5,6,7,8,1q3[8:3],,,8,,,{16}8,
{8}1,{16}6,7h[8:1],,,{8}7,{16}5/6,,,2pp1>4[16:15],,,{8}6pp5<8b[4:3],
{1}6,
{16}4>1[16:3],5,5,6,8,7,6,5,4<7[16:3],3,3,2,8,1,2,3,
4>8[16:3],5,5,6,8,7,6,5,4<8[16:3],3,2,1,8,1,2,3,
4x/5,{32}3,4,3,4,{16}3,4/5x,{32}6,5,6,5,{16}6,8x/1,{32}7,8,7,8,{16}7,8/1x,{32}2,1,2,1,{16}2,
{24}2bx,2,2,4,4,4,8bx>4<1b[4:1],8,8,6,6,6,{4}8b,{8}C,{16}7,7,
1/8x-4[16:1],7,6,5,8b,5,6,7,8/1x-5[16:1],2,3,4,1b,3,2,1,
8/7x-3[16:1],6,5,4,7b,5,6,7,1/8x-4[16:1],2,3,4,8b,1,2,3,
4/5x-1[16:1],6,7,8,5b,7,6,5,3/4x<7[16:1],2,1,8,4bpp7[16:5],1,2,3,
{4}4x>1b[16:1],{8}4bx,{16}8,7,4/6x-1[16:1],,,4,{8}6b,2,
4>1b[16:1]/5<8[16:1],1q3<4b[8:3]/8p6>5[8:3],{4}5bx/4bx,{16},,,,,,3x/4,1x/8,
{8}6/5x>2b[16:1],{16}4,{32}6,6,{16}5x,7,{8}6h[16:1],{32}1-4b[16:1],1,{16}8-5[16:1],2,7,1x,8x,{32}4x,3x,2x,1x,
{8}7/8x>3b[16:1],{16}4,5,6x,7,{8}8/4,{32}8-6b[16:1],8,{16}1-5[16:1],8-4b[16:1],1-3[16:1],8x,1x,8x,1x,
{8}8x<5b[16:1],{16}4,3,2,1,{8}8/4,{32}5,5,{16}3,6,{32}4,5,2,7,4,5,1,8,4,5,
{16}6x/3bxh[8:3],{32},,,,,,,,,,,,5,4,7h[32:3],,,8h[32:3],,,{16}1,{32}2h[32:3],,,3h[32:3],,,{16}5,
6>8[4:1],,,C,{32},,,,,,,,B4,B5,B6,B7,B8,B1,B2,B3,{16}4xqq1[16:5],{32}5,5,,6,{16}6,
{8}4,{16}7,8h[8:1],,,7p5[0.75##1.125],{32}1x,2x,{4}3xh[8:1],{32}E4,,{16}B1,{32},,2x<6[16:3],3x,
{8}4xh[16:5],{16}2,2,,,{8}3,{16}8h[16:3]/3>1[16:1],,,4,7/3x,6,5,4,
{8}3-8[16:1],2,{16}4/3x,{32},,,,7,6,4/5-8[16:1],,,3,,,{16}2,{32}5x/4,,,3,,,{16}2,
{8}8/1>4[16:1],2,{16}1x/8,7xh[8:1],{32},,,,5/6<1[16:1],,,4,,,{16}3,{32}6x/5,,,4,,,{16}3,
{8}1/2>5[16:1],3,{16}2x/1,{32},,,,8,7,{4}4h[8:1]/6-2b[16:1],{8}4h[16:1]/6x<4[8:3],3h[16:1],
{2}Cfh[1:1],4x>5b[4:1],
{16},,,,,,,,,,,,,,5,5,
{8}4h[4:1],3,2h[4:1],1,8h[4:1],7,6h[8:1],5,
{16}3/4,2x,4/3,2x,5/3,1x,5/3,1x,6/4,8x,4/6,8x,6/5,7x,5/6,7x,
{32}3x,5,4,5,2x,4,3,4,1x,5,4,5,8x,6,5,6,{8}E7,C,E3,C,
{16}4/3,2,5-1b[16:1],{32}4-2[16:1],4,{16}6,3,5b,4,7,2,5/6,{32}4,4,{16}8,2/1,4/3,1/8,
5/4,3,2-6b[16:1],{32}7-4[16:1],7,{16}1,8,2b,7,2q4[16:3],8,1,{32}6,6,{16}2,6,7,8,
5/1,7,4-8b[16:1],{32}5-7[16:1],5,{16}3,6,4b,5,1v4[16:1],1,7,{32}6,6,{16}1,5,6-2[16:1],7,
8x/4x,8x/4x,{8}6b/2-6b[16:1],{16}8x/4x,8x/4x,{8}2b/7-4[16:1],{32}8,1,8,1,{8}7b/2-6b[16:1],{16},4bx/8x,{8}2b/6,
{16}4,5,2,7,3,6,1,8,{32}2x,7,4,5,1x,8,3,6,{48}1x,2,3,7x,6,5,2x,3,4,8x,7,6,
{8}1b/5v8[16:1],{16}6,{32}4,4,{16}5,3,{8}2h[16:1],{32}5-1[16:1],5,{16}4>2b[16:1],6,3,5x,4x,{32}8x,7x,6x,5x,
{8}3/4xv7[16:1],{16}5,3,4,3,{8}2/8,{32}1-3b[16:1],1,{16}8-4[16:1],1-5b[16:1],8-6[16:1],1bx,8bx,1bx,8bx,
{8}4bx<7[16:1],{16}8,1,2,3,{8}4/8,{32}6,6,{16}5,4,{32}3,3,6,6,4,4,5,5,3,3,
{8}4bx/2xh[8:3],{16},,,,6>3[16:3],6,{8}7h[8:3],{16},,,,2<7[16:3],2,
{8}3h[8:3],{16},,,,6<1[16:3],6,{8}5h[8:3],{16},,,,3-6[16:3],2,
{8}1h[8:3],{16},,,,7-3[16:3],7,{8}7h[8:3],{16},,,,4-8[16:3],2,
{8}5/1h[4:1],{16},,,,2,3,5/4h[16:3],,,3h[16:3],,,{8}2h[8:1],
{2}1p6[8:5],{16}1h[8:1],,,2h[8:1],,,{8}3qq8>3[4:3],
{16}6,5h[2:1],,,,,,,,,5,5,6,6,7<4pp7[8:7],7,
{2}3h[4:1],{16}3h[8:1],,,2h[8:1],,,{8}1,
{16}8,8h[8:7],,,,,,,{2}4h[16:7],
{32}1x/5x,2x/6x,{16}3xh[16:11]/7xh[16:11],,,,,,,,,,,{4}B7/B3/Ch[128:1],
E
