&title= TECHNOPOLIS 2085
&artist=PRASTIK DANCEFLOOR
&first=0
&des=LUNER
&lv_5=14
&inote_5=(134)
{1}
,
{32}
8h[32:2]/4h[32:2],,,,
3h[32:2]/7h[32:2],,,,
2h[32:2]/6h[32:2],,,,
15,,1h[32:5]/5h[32:5],,
,,,,
26,37,8h[32:3]/4h[32:3],,
,,37,26,
1h[32:5]/5h[32:11],,,,
,,2,3,
4h[32:7],,,,
6,7,8,,3,2,1h[32:5],,
8^5[16:1],,,,
2,3,4,,
,,,,
,,,,
5h[32:4]/4h[32:4],,,,
,,,,
3h[32:4],,7h[32:2],,
,,8h[32:5]/4h[32:5],,
,,,,
73,62,1h[32:3]/5h[32:3],,
,,62,73,
8h[32:5]/4h[32:11],,,,
,,7,6,
5h[32:7],,,,
3,2,1,,
6,7,8h[32:5],,
1^4[16:1],,,,
7,6,5,,
,,,,
,,,,
{16}
1-5[8:1]/8,,7,,
1-3[8:1]/6,,7,7,
1-5[8:1],,8,,
1,7,,,
8-4[8:1],1,,,
8-6[8:1]/2,,3,,
8-4[8:1]/2,,1,,
82,,1,1,
8-5[16:1],,5h[8:1],,
,,1-4[16:1],,
4h[8:1],,
,,
1-4[16:1],,4h[8:1],,
,,8-5[16:1],,
5h[8:1],,
,,
8b<1[16:4],,,,
1b,,,,
4h[16:2],,1,3,
8,2,7,1,
6h[16:2],,5,7,
4,6,3,5,
2h[16:2],,5,3,
6,4,7,5,
8h[16:2],,1,1,
7,7,3,3,
5h[16:2],,8,6,
1,7,2,8,
3h[16:2],,4,2,
5,3,6,4,
7h[16:2],,4,6,
3,5,2,4,
1,1,2,2,3,3,4,4,
5p4[8:2],,,,
4>5[8:3]*q5[8:3],,,,
,,,,
,,,,
4q5[8:2],,,,
5<4[8:3]*p4[8:3],,,,
,,,,
,,,,
5pp4[8:2],,,,
4>5[8:3]*qq5[8:3],,,,
,,,,
,,,,
{32}
45,6,7,8,1,2,3,4,
15,2,3,4,5,6,7,8,
41,3,2,1,8,7,6,5,
{16}
1,1,1,1,
{16}
5h[16:36],,,,1v7[8:1],,,,
1v3[8:1],,,,
1,,,,
2h[16:2],,,3h[16:2],
,,4,,
6h[16:2],,,7h[16:2],
,,8,,
1q1[8:2],,1,,
1>8[8:3],,,,
,,,,
,,,,
1-5[8:1],,,,
15,,,,
64,,5-1[8:1],7,
,3,5,,
4h[16:36],,,,8v2[8:1],,,,
8v6[8:1],,,,
8,,,,
7h[16:2],,,6h[16:2],
,,5,,
3h[16:2],,,2h[16:2],
,,1,,
8z4[16:3],,8,,
8<1[8:2],,,,
,,,,
,,,,
{32}
54,3,2,1,8,7,6,5,
84,7,6,5,4,3,2,1,
58,6,7,8,1,2,3,4,
{16}
8,8,8,8,
{16}
4h[16:12],,,,8pp8[8:2],,,,
8qq8[8:2],,,,
,,,,
4^1[8:1],,4^7[8:1],,
,,
,,
8-4[16:1],1-5[16:1],
2-6[16:1],3-7[16:1],
,,,,
1q1[8:2]*p1[8:2],,1,,
1>8[8:3]*<2[8:3],,,,
,,,,
,,,,
1^6[8:1],,4,3,
2p6[8:1],,5,4,
3v6[8:1],,1,2,
3,,2,3,
4h[16:16],,,,8pp2[8:1],,,,
8qq6[8:1],,,,
8,,,,
8,,4,4,
8-2[8:1]*-6[8:1],,4,,
8V64[8:1]*V24[8:1],,,,
8,,,,
1-4[8:1]*-6[8:1],,,,
1w5[8:1],,,,
,,,,64,,5,5,
4,,6,3,
,7,2,8,
1-4[8:1],1,
1,1,
,,,,
5h[16:12],,,,1qq1[8:2],,,,
1pp1[8:2],,,,
,,,,
5^8[8:1],,5^2[8:1],,
,,
,,
1-5[16:1],8-4[16:1],
7-3[16:1],6-2[16:1],
,,,,
8p8[8:2]*q8[8:2],,8,,
8<1[8:3]*>7[8:3],,,,
,,,,
,,,,
8^3[8:1],,5,6,
7q3[8:1],,4,5,
6v3[8:1],,8,7,
6,,7,6,
5h[16:16],,,,1qq7[8:1],,,,
1pp3[8:1],,,,
1,,,,
1,,5,5,
1-7[8:1]*-3[8:1],,5,,
1V35[8:1]*V75[8:1],,,,
1,,,,
5^7[8:1]/4^2[8:1],,,,
5p1[8:1]/4q8[8:1],,,,
,,,,8z4[8:6]/1s5[8:6],,27,27,
,,,,
,,,,
,,,,
,,,,
4b>5[8:4]/5b<4[8:4],,,,
,,,,
,,,,
,,,,
3h[8:1]/4,,5,4,
6h[8:1],,3,4,
2h[8:1],,6,5,
7h[8:1],,1,,
8>6[4:1]/6,,,,
,,,,
1<3[4:1],,,,
,,,,
1V37[8:2],,,,7V15[8:2],,,,5-3[8:1]*-7[8:1],,,,
,,,,
2-6[8:1]/8-4[8:1],,6-2[8:1]/4-8[8:1],,
2>1[8:3]/8<1[8:3],,,,
,,,,
,,,,
73,,5,5,
5v6[8:1]*pp6[8:1],,,,
5qq4[8:1]*v4[8:1],,,,
,,,,
1b-7[8:1]*-6[8:1],,,,
1b-3[8:1]*-4[8:1],,,,
1b-5[8:1],,,,
,,,,
4,4,5,5,
4,6,2,8,
1,1,1,1,
8,7,6,5,
3h[8:1]/4,,5,4,
6h[8:1],,3,4,
2h[16:3],1,,1,
,,7,8,
6h[8:1],,4,5,
3h[8:1],,6,5,
7h[16:2],,1h[16:2],,
8h[16:2],,,,
1<3[4:1]/3,,2,2,
2,,,,
8>6[4:1],,7,7,
7,,8,8,
8-4[8:1],,,,
8qq4[8:3]*pp4[8:3]
,,,,
8b,,,,
,,,,
6h[8:1]/5,,4,5,
3h[8:1],,6,5,
7h[16:2],,3,4,
2h[16:2],,
8,1,
8-2[8:1],,2-7[8:1],,7-3[8:1],,3-6[8:1],,
6-4[8:1],,,,
,,,,
1,1,1,1,
2,2,2,2,
3,3,3,3,
4,4,4,4,
5,5,,5,
6,6,6,6,
7,7,7,7,
8,,8,8,
1^3[16:1],1^6[16:1],
1-4[16:1],1p5[16:1],
,,,,
,,,,
{48}1b/8b,27,36,45,
,,,,
,,,,
{16}
4h[16:2]/8,,,,
8v2[8:1]/4h[16:2],,,,
8v6[8:1]/4h[16:2],,,,
8/4h[16:2],,,,
7h[16:2]/4h[16:2],,,6h[16:2],
4h[16:2],,5,,
3h[16:2]/4h[16:2],,,2h[16:2],
4h[16:2],,1,,
8p8[8:2]/4h[16:2],,8,,
8<1[8:3]*>7[8:3]/4,,,,
,,,,
,,,,
8-4[8:1]/1-5[8:1],,,,
18,,,,
45,,56,57,
,34,24,,
5h[16:2]/1,,,,
1v7[8:1]/5h[16:2],,,,
1v3[8:1]/5h[16:2],,,,
1/5h[16:2],,,,
2h[16:2]/5h[16:2],,,3h[16:2],
5h[16:2],,4,,
6h[16:2]/5h[16:2],,,7h[16:2],
5h[16:2],,8,,
1s5[16:3]/5h[16:2],,1,,
1>8[8:2]/5,,,,
,,,,
1-3[8:1],,8,8,
1-5[8:1],,6,6,
1-4[8:1],,7,7,
1-6[8:1],,5,5,
1>8[8:3],,8,8,
,,,,
,,,,
{32}1,2,3,,
8-4[16:1],,1,,
8,7,6,5,
,,,,
{16}
5h[8:1]/3h[8:1],,,2h[8:1]/6h[8:1],,,71,,8-4[8:1],,,,84,,,,
1q1[8:2]/5h[16:2],,1,,
1>8[8:3]*<2[8:3]/5,,,,
,,,,
,,,,
1-5[8:1]/8-4[8:1],,,,
81,,,,
54,,43,42,
,65,75,,
4h[16:2]/8,,,,
8v2[8:1]/4h[16:2],,,,
8v6[8:1]/4h[16:2],,,,
8/4h[16:2],,,,
7h[16:2]/4h[16:2],,,6h[16:2],
4h[16:2],,5,,
3h[16:2]/4h[16:2],,,2h[16:2],
4h[16:2],,1,,
8z4[16:3]/4h[16:2],,8,,
8<1[8:2]/4,,,,
,,,,
8,8,8,8,
18,,67,,
45,,23,23,
,18,27,36,
4b/5b,,,,
{32}
8h[32:2]/4h[32:2],,,,
3h[32:2]/7h[32:2],,,,
2h[32:2]/6h[32:2],,,,
15,,1h[32:5]/5h[32:5],,
,,,,
26,37,8h[32:3]/4h[32:3],,
,,37,26,
1h[32:5]/5h[32:11],,,,
,,2,3,
4h[32:7],,,,
6,7,8,,3,2,1h[32:5],,
8^5[16:1],,,,
2,3,4,,
,,,,
,,,,
