&title=Note's Greeting ~エドワード・エルガー「愛の挨拶」より~ -
&artist=冲浪雪鹰
&first=0.14
&des=冲浪雪鹰 总物量是521喵(我去不早说)
&lv_5=13
&inote_5=(96)
{8}1h[16:3],,3h[16:3],,5h[16:3],,7h[16:3],,3>6[4:3],,6h[8:1],,5h[8:1],,4h[8:1],,
{16}3h[8:1],,,5,5h[8:1],,,7,7h[8:1],,,1,1h[8:1],,,,4qq5[16:7],,,,6pp5b[16:3],6,7,,,,,,
{8},,8z4[4:1],,,,2s6[4:1],,,
{16}8<4p8[16:9],,7,,,4q8b[4:1],,,6,,,,,,
{8}2-5[4:1],3/4,2/5^2[4:1],,2^7[4:1],,7^4[4:1],,1?-5[2:1]/1-5[2:1],8,7h[2:1],,,,,
{8}5/6,7/6,8/7,8/1s5[4:1],,,,7z3[4:1],,,
{16}1>5q1[16:9],,2,,,5p1b[4:1],,,3,,,,,,
{8}7-4[4:1],6/5,7/4^7[4:1],,7^2[4:1],,2^5[4:1],,8?-4[2:1]/8-4[2:1],,2h[2:1],,,,,,,,
(48)
{32}1-5[8:1],,,4/5,,,6/7,,1/8,,,,,,,,
{32}3h[16:1]/4h[16:1],,,4h[16:1]/5h[16:1],,,6h[8:1]/5h[8:1],,,,,,
{32}2,6,3,5,
{4}4^7[12:1]/4?^1[12:1],
(96)
{16},,,,,,,,1/2v4[4:1],,,,,,8,,7v5[4:1],,,,,,2-7[8:1],,7-4[16:3],,,4^1[4:1],,,1b,,,,,,
{16}2/5,,2/5,,3v6[16:3]/4,,,2,,,1,,8-3[8:1]/7,,1,,8/7<3b[2:1],,6,,7hb[2:1],,,,,,,,,,
{16}1h[8:1],,,2h[16:3],,,
{16}7v5[4:1],,,,,,1,,2v4[4:1],,,,,,7-2[8:1],,2-5[16:3],,,5^8[4:1],,,8b,,,,,,
{16}7/4,,7/4,,6v3[16:3]/5,,,7,,,8,,1-4^2[8:1]/2,,,,1/2>6b[2:1],,,,2hb[2:1],,,,,,,,,,,,,,,,
(48)
{16}1h[16:1]/2h[32:3],,,3/4,4h[8:1]/5h[8:1],,,,8h[8:1]/7h[32:3],,,6/5,5h[8:1]/4h[8:1],,,,
{32}1q5[32:3]/7,,,8/2,,,6/8,,1/7p3[32:3],,,8/6,,,2/8,,
{32}1/7,,,,2,4,3,5,4,6,5,7,6h[8:1],,,,
{32}1-6[32:3],,,2h[16:1],,,3,,8-3[32:3],,,7h[16:1],,,6,,2>7[32:3],,,6h[16:1],,,4,,
{16}2h[8:1],,,,
{32}1-6^4[4:1],,,2,2,,3,,4-1[8:1],,,,,,,,5-2^8-5b[16:3],,,6,6,,7,,
{16}8,,,,
(96)
{16}1/8,,,6/7,,,5/4,,,2/3,,,1/8-4[8:1],,,,
{8}8/5pp7[8:1],6,5qq3[8:1],4,5/2-5b[8:1],1,2/1^6[8:1],8,1/4-8[8:1],3,5pp6[4:1]/5?qq4[4:1]/4,7,5b,,,,
{16}1h[8:1]/2h[4:1],,,3h[8:1],,,4h[8:1]/5h[8:3],,,,,,,,,,8h[8:1]/7h[4:1],,,6h[8:1],,,5h[8:1]/4h[2:1],,,,,,5w1[2:1],,,,5b,,,,,,,,,,,,,,,,
{16}1hb[8:1]/8,,7,2hb[8:1],,,3hb[8:1]/6,,5,4hb[16:3],,,5^8[8:1],,,,
{16}5-2[8:1],,3,,5/1-6[8:1],,7,,1^4[8:1],,2,2,1/8-5^7[8:1],,7-3-8[16:5],,8,,,8-5^7[4:1]/8?-3^1[4:1],,,4b,,,,,,4-7[8:1],,3/2,,4/3^8[8:1],,5,,3/5-1b[8:1],,6,,5b/3-8[8:1],,2,,3b/4w8[4:1],,6,,4b,,,,,,,,,,
{16}8h[8:1],,,7h[16:3],,,
{16}4-7[8:1],,6,,4/8-3[8:1],,2,,8^5[8:1],,7,7,8/1-4^2[8:1],,2-6-1[16:5],,1,,,1-4^2[4:1]/1?-6^8[4:1],,,5b,,,,,,5>1[4:1],,6/7,,1<6[16:3],,,6pp3[16:7],,,5h[4:1],,,,,,6,,7,,
{16}8^5[16:3]/1,,,5^2[16:3],,,2v8[8:1],,,,,,
{16}1h[8:1],,,,2/4pp7[4:1],,,1,,,8,,1pp4[4:1],,,7,,,6,,5h[2:1],,,,,,,,1hb[8:3],,,,8hb[8:1],,,,
{16}1/7b,,B1f/B7,,2b/6,,B2/B6f,,3hb[4:1]/5h[8:1],,,5,5,,4/6,,1v4[8:1]/3,,2,8,1v6[8:1]/7,,8,2,1/3pp8[16:3],,,,3h[8:1],,,,7h[8:7],,,,,,,,2hb[8:3],,,,,,,,5b^2[8:1]/5?-2[8:1],,,,5b^8[8:1]/5?-8[8:1],,,,5bw1[8:1]/5?-1[8:1],,,,5b,,,,
{16}1p7[16:3]/3h[4:1],,,,1^4[8:1],,2,,1/6-3[8:1],,7,7,6/5-8[8:1],,4,,5/7v2[8:1],,6,,7bpp7[8:1]/7?qq7[8:1],,6,,7>3[8:1]/7?<3[8:1],,,,7b,,,,
{16}5p3[16:3]/7h[4:1],,,,5^8[8:1],,6,,5/2-7[8:1],,3,3,2/1-4[8:1],,8,,1/3v6[8:1],,2,,3bpp3[8:1]/3?qq3[8:1],,2,,3>7[8:1]/3?<7[8:1],,,,3b,,,,
{16}7hb[8:1]/8,,6,6hb[8:1],,5,5hb[8:1],,4v7[8:1],,3/4,,5v2[8:1]/4,,6,6,5/4,,4,3,1b,4,3,4,1b,4,3,4,2b,4,3,4,
{8}2b/3bqq4[4:15],,,4,5,6,
{6}7,7,8,
{64}8,,,,,,,,,,,,,,,,,,,,,,8x,7x,6x,5xpp4b[2:1],4x,
E
