&title=Shinovazal
&artist=!すでのな vs Ninja Never DieS!
&first=1.25
&des=NiGHT WolVE
&lv_5=14
&inote_5=(200)Ch[1:1],,,,,,1xh[4:1],,
{8}8b-6-4b[4:1],,,,2,,3,3h[2:1],,4,,5,,6b,,3,5b/4b>8[4:1],,6,,6,,7h[8:5],1,,2,,3,,3b-6[8:1],1,8,7b-4[8:1],,2,,3xh[8:1],,6,5h[4:1],,3,,45,6,7b/8b,1-5[8:1],2,3bh[4:1],,,6,5x/6x,,3,34,,25,,16,27,83,1-5b[8:1]/4,,1,,,3,2-6[8:1]/5,,7x,,7,8-4[8:1]/5,,3x,,2,2,,
{16}3,4,3,4,,,6,5,6,5,,,45,,,,2,5,3,4,,,7,4,6,5,,,8-4b[8:1],,,,8,,
{8}3,3,4,4,5,5,6,6,5,4,3,45,6,35,2,
{16}7,1,7,1,7,1,7,1,
{32}7,6,5,4,3,2,1,8,7,6,5,4,3,2,1,8,7w3[8:1],,,,,,,,,,,,,,,,,,,,
{8}81,72,,
{16}8/1-5[8:1],,,,1b,,,,7,5,6,5,7,5,6,5,7,,8,,12,,3,,5,4,5x,,6,5,6x,,7<4b[8:1]/4,,,,7,,,,2x,4,3h[8:1],,7x,5,6h[8:1],,3,4,2,5,1,6,8,7,8-5[8:1]*-3[8:1],,,,8b,,,,4xh[8:1],,,,7xh[8:1]/5xh[8:1],,,,8,3,8,3,7,2,7,2,6<1[8:1],,6,,2>5[8:1],,2,,8-4[8:1],,8,,2x,,,,71,,6,,28,,3,,
{24}1xh[8:1]/8xb,7x,6x,5x,,,1xh[8:1]/2xb,3x,4x,5x,,,1xh[8:1]/8xb,7x,6x,5x,,,1xh[8:1]/2xb,3x,4x,5x<2[4:1],,,,,,,,,,,,,,,
{16}E8/E7f/E6/B7/B6,,,,4h[16:1],,4h[16:1],,5h[16:1],,5h[16:1],,,,6h[16:1],,6h[16:1],,2h[16:1],,2h[16:1],,8h[16:1],,8h[16:1],,1-5b[8:1],,,,1,8,7bhx[4:1],,,,,,4,,4x,,6,5,6,,47,,3,4,3,,25,,25,,1h[8:1],,6,,6,,4,4,5b/3b,,6,4,5,,2,4,3,,7,1,8,,2,1,3,,7,5,6,,3,4,2,,81,81,72,,63,,5h[8:1]/4,,4,,3h[8:1]/6,,6,,
{12}1,2,3,7,6,5,Cf/2b,,6b/Cf,,8xb/4bx,,7bp2b[4:1]/3bp6b[4:1],,,,,,Cf,,,
{16},,,,8-4[8:1],,,,3h[4:1],,,,6<2[4:1],,,,2>8[2:1],,,,,,,,,,,,2bh[4:1],,,,,,,,6bh[4:1]/5bh[4:1],,,,,,,,8bh[4:1]/1hb[4:1],,,,,,,,7-3[8:1],,,,,,,,4xh[1:1],,,,,,,,,,,,,,,,5w1[2:1],,,,,,,,,,,,,,,,
{12}3,4,3,6,5,6,2,4,2,7,5,7,1,4,2,8,5,7,2,4,3,7,5,6,3,3,5,4,4,6,5,7,7,4,6,6,2,6,4,7,3,5,3hx[8:1]/E6/B6/B5,,,6xh[8:1]/E2/B1/B2,,,8xbh[6:1],,2,2,,,1h[6:1],,6,6,,,7h[6:1],,4,4,,,53,,62,62,,,7bh[6:1],,1,1,,,8b/1b,,1b/2b,,2/3>5[6:4],,,,,,,,,,,,,,
{4}6h[1:2]/2h[1:2],,,,,,,,,,,,,,,,
{8}4h[2:1],,5,,6,,,,7h[2:1],,1,,2,,,,Ch[1:1],,E8/E2,,B8/B1,,,,1x-6-4[2:1],,,,,,,,
(100){16}7-1[16:1],6,5,4,7b-4[16:1]/3,2,2,2,1/7-2[16:1],3,3,3,7b/3,4,4,,1>3[16:1]/8,,7,7,6/1b-5[16:1],7,7,7,8/1-4[16:1],7,7,7,6/1b,5xh[16:1],,,
(110){32}1>4[8:1],,,,7,,8,,1x,,,,,,,8,8/2-5[8:1],,,,7,,,6,6x,,,,7,,,,8<5[8:1],,,,2,,1,,8x,,,,,,,3,3h[8:1],,,,4,,,,45,,,,36,,,,
(130){16}7h[16:1]/2h[16:1],,,,4,3,4,2,5,4,5,3,6h[8:1],,
{32}B1,B2,B3,B4,7bh[8:1],,,,,,,,
{16}5,6,5,7,4,5,4,6,3,4,3,5,
(140)6<1[4:1],,,,1>4[4:1],,,,4<7[4:1],,,,7>2[4:1],,,,2>5[4:1],,,,5s1[4:1],,,,,,,,,,82,,
(150){16}7b-4[8:1]/3bv8[8:1],,,,7b>2[8:1]/3b,,,,7b/3b<6[8:1],,,,3b/8b,,8b,,
(160)7h[16:3],,,8,1b/6b,,2,1b/3b,8x/4x,,8x/4x,,73,,73,,
(170)8b-6[8:1],,,,8b-4[8:1]/3,,,,2/8b-6[8:1],,,,8/1h[4:1],,,,
(180)4,5,6,7,81,,2,,3,4,3,,25,,25,,
(195)1bh[4:1],,,,,,,,
(210)2bh[4:1]/7,,,5,,,5,,
(225)3bh[4:1],,,,,,,,
(240)4bh[4:1]/5,,,5,,,6,,
(256){8}7,7,4,4,6,6,2,2,
{16}8,7,6,5,4,3,2,1,8,7,6,5,4,3,2,1,
(200){2}8-6-4-2-8b[2:1]*>8[2:1],,
{16}E8,,,E6,,,E4,,E2,,,,Cf/E1/B8/B4/E5,,,,
{16}7b/4,,6,5,6,,47,,2-4[8:1],,1-5[8:1],,2,,1,,3b,,8,7,6b/1b,,2,3,4b-8[8:1]/7b-5[8:1],,,,47,,,,15,,24,24,,,35,,7,6,5,4,8,1,2,3,8bh[8:1],,,3bh[8:1]/4bh[8:1],,,7bh[16:1]/6bh[16:1],,8b-5[8:1]/4bv1[8:1],,,,E1/E5f,,,,2hxb[8:1],,8,1,7,2,6,,2-5[8:1],,8-6[8:1],,2,,8,,4,3,2,1,8-4[8:1],,8,,6-2[8:1],,6,,,,3,,38,,12,,3,,45,,8,7,6,5,41,2,3,4,5bh[8:1]/7bh[8:1],,,8bh[8:1]/4bh[8:1],,,1bh[16:1]/3bh[16:1],,
{32}2b,E2/E3,B1/B3,B8/B4,E8f/E5,,,,,,,,,,,,
{4}6<4pp8b[4:5],,,,,,,8b/1b,
{16}3b/4b,,6,5,7,,2,1,3,8,4,,57,,4b/6b,,
{32}3b,D3,A2,D2,A1,,7b,D7,A6,D6,A5,,1b,E2,B2,B3,E4f/8b,,,,,,,,
{16}5,6,7,8,1b,,3,4,2,,8h[16:1],4,7,,65,,45,,2,,2,,8,2,6,4,7,1,5b,,34,,2,,34,,5b/3b,,1,,6b/4b,,8,,
{32}1b,2,3,4,5,6,7,8,1b,2,3,4,5,6,7,8,1,,,,
{16}2xbh[8:1]/4xbh[8:1],,,6bxh[8:1]/1bxh[8:1],,,7bxh[8:1]/3bxh[8:1],,,6xbh[8:1]/5xbh[8:1],,,8bx/2bx,,
{32}1xb,28,37,46,5<5[1:1]*>5[1:1],,,,
{4},,,,,
{8}E6,E5,E4,,
{32}8xb,71,62,53,4>4b[1:1]*<4b[1:1],,,,
{4},,,,,
{8}B6,B5,B4,B3,2bh[4:1],,
{16},,,,3,4,3,4,3h[8:1],,,,7bh[4:1],,,,,,,,6,5,6,5,6h[8:1],,,,25,,3,4,3,,4,3,4,,25,,25,,16,,8pp3[2:1]/7qq4[2:1],,,,,,,,,,,,,,,,
{16}2b,1,2,,3h[8:1]/8h[8:1],,,,71,,6,4,5,,3,,
{32}12,,,,2b,3,4,5,,,,,78,,,,7b,6,5,4,,,,,
{16}2,5,3,4,1b,,6,,4,5,4,,27,,18,,2,,46,,
{32}52,,,,8b,7,6,5,,,,,34,,,,1b,2,3,4,,,,,
{16}6,,57,,8b/4b,,2,1,3h[16:1],,6,5,7h[16:1]/4,,3,,24,,15,,
{32}8,,,,1b,2,3,4,5,,,,6,,,,8b,7,6,5,4,,,,
{16}34,,25,,6,1,5,2,4,3h[16:1],,3,8,4,7,5,6h[16:1],,6,,7,4,6,5,8,3,1,2,1,2,1,2,
{32}1b,8,7,6,5,4,3,2,1b,2/8,3/7,4/6,5,,,,
{16}8b/4b,,2b/6b,,,,,,,,,,,,,,,,,,,,,,,,,,
E
