&title=ボーイ・ミート・ミー!
&artist=lapix; Avans; Eye
&first=0
&des=RABI*NEKO
&lv_5=14
&inote_5=(142)
{1},{4},,,{8},
{24}
4x,3x,2x,
{4}
1xhb[4:1]/5b<8[8:1],,
{16}
2xh[16:3],,,
4,,,,3xb>8[8:1]/4xb<7[8:1],,,,,,,1xb/6xbq1[8:3],,,,
{8}
2,2,3x,
{4}
4b-1[8:1]*-7[8:1],,
{16}
8h[16:3],,,
5,,,,4xb>1[8:1]/7xb<4[8:1],,,,,,,,
8xb-3[8:1],,,
{8}
4V61[16:3],5,4,
2xbq5b[8:3],,,,
{16}
6-1[16:1]*-8[16:1],,,6,,,,
2xbv5[16:1],,,5x,,6x-1[16:1],,,
3xbq6[16:5],,,3x,,2x,,1x,,
{8}
8xb-4[8:1],,,,
{16}
8-3[16:1],,,2<3[16:9]/8,,,4hb[8:3],,,,,,,,,,
5-1[8:1],,,6,56,,,,
{8}
7-5[8:1],,4,3,2-8[8:1]/4x,,7,6,5x-1[8:1],5,2,3,4h[4:1],B7/B8,B7/B8,,
7<5[8:1],5,3<5[8:1],1-5[8:1],3,1,,
2<7[8:1],,27,6-2[8:1],5,4w8[8:1],,,,
6V84[4:1],,5,4,3<6[8:1],,{16}4,,,7x-4[8:1],
{8}
,1,1,,3V14[4:1],4-7b[8:1],3,,,
8<5[8:1],1,2,{16}3-1[16:1],,,34,,,
{16}
7x,7xh[16:3],,,5h[16:3],,4,4,,
2h[16:3],,,4h[8:1],,5,,45,,,,
{8}
6x-4[8:1],7,1,{16}2<7[8:1],,,1x,,,,6x-1[8:1],,,
{8}
4,4,,5V38[4:1],8-5b[8:1],5,,,
1x,2,35,46,{16}7,5<5[16:9],,3,5b,,
{4},,
Ch[4:1],,
{16}
7>2[4:1]/5,,,4,,,3,,
3V51[4:1],,,1,,,8,8xh[16:3],,,1,,7,7,8,,
6-3[8:1],,4,4,,,,,
2h[8:1],,4,4,3,,6,6,5,7,4,8,3,1,2,,
4,34,,5>8[16:9]/7qq6[16:9],,24,,5b/7b,,,,,,,,,
{4},,
1>4b[8:1]/5<8[8:1],15,
{16}
2-5b[8:1],,3,1,2b,,6,6,5-1[8:1],7,,4,5,,,,
2-6b[8:1],,3,1,2b,,8,8,1-5[8:1],7,,2,1,,,,
3p7b[8:1],,7xv1b[8:1],6x,5x,,4x-8b[8:1],5x,6x-2[8:1],,4,,6,,1,,
8xb-2[8:1],,6,5,8xb-6[8:1],3,,3q5b[16:5],8xb,,,,,,,,
7-4[8:1],,6,8,7b,,3,3,4-8b[8:1],2,,5,4,,,,
7-3[8:1],,6,8,7b,,1,1,8-4b[8:1],2,,7,8,,,,
6q2[8:1],,1x,2x,3xb,4x,,
5xh[8:1],,6,5,,2h[16:3]/8,,,4h[8:1],,3,4,,1/7h[16:3],,,
5h[8:1],,6,5,7,3,4,2,8,
1b,,6,6h[8:1],,5,5h[8:1],,4,4h[16:5],,3-1[16:1],,,3x,,
,,7,5h[8:1],,6,4h[8:1],,5,3h[16:5],,4-8[16:1],,,4x,,
,,2,4h[8:1],,3,5h[8:1],,4,6h[8:1],,5-7[16:1],5x,,
8,8-4[8:1],,1,1,,2b,,,
4-8[8:1],,5,5,,6b,,,,
17,,2,,35,,6,,78,,12,,
3,5,
{48}
4b,3x,2x,1x,8x,7x,
{4}6xh[2:1],4q5[8:3]*q5[8:3],4>1[8:1]*>1[8:1],,
8,
{24}
7h[8:1],,,5,,5,6-1[8:1],,4,,,4,{8}6,3,
{24}
8,,8,,,1,7q1[4:1],,7,8h[8:1],,,
{8}
,,2x,3x,4b/E7/B7f,,
{16}
5-7[8:1],5,,2,,,,,
5q1[8:1],5,,2,,,,,
5v3[8:1],5,,2,5,,1,,8w4[8:1],,7,,A8f,,,,
{24}
2h[8:1],,,4,,4,3-8[8:1],,5,,,5,{8}3,6,
{24}
1,,1,,,8,2p8[4:1],,2,1h[8:1],,,
{4}
,7h[1:1],5h[4:3],,,
{8},
{24}
5x/7x,46,35,
{4}2bp7[8:5]/4b,,6-3b[8:1],,
{16}
1xh[8:1],,,,
{24}5,,4,6,,5,
{16}
7,5,7,5,6,5,6,5,4,5,4,5,6,5,6,5,
7,7,5,5,
6-3[8:1],,78,,1-5[8:1]/6,,,,
6x,6x,,7,8,6,8,6,5,7,5,7,1,6,1,6,4,7,4,7,5,6,5,4,
{24}
5xb,6,7,8,1,2,
{4}3/5h[4:1],
{16}
4-2[8:1],4,,7,,,,,4p8[8:1],4,,7,,,,,
4v6[8:1],4,,7,4,,8,,1,,2,,
{8}
3-1[8:1]/7,4,6-8[8:1],5,2-5[8:1],1,2-8[8:1]/7-3[8:1],8,
2-6b[8:1]/7,,2-4[8:1]/4-7[8:1],,2/4-8b[8:1],,
7,6,1b/5b,,
{24}
2,,2x,{16}4,3,
{24}
6x,5x,6x,
{16}4x,7,
3,4,3,4,5,4,5,4,2,4,2,4,3,3,5,5,
4-1[8:1],,56,,4b/7b-2[8:1],,,,
27,,,3x,
4,2,4x,2,1,3x,1,3,5x,1,5,1,7x,3,7,3,
1x,5,7,3,
{24}
5xb,4,3,2,1,8,
{16}
47,,5,,6,6,4,,2,,5,5,3,3,4,4,
1,7,2,5,1,6,3,5,2V85V37[8:3],7,4,5,
2,,,,,,
6,6,4,,3,3,5,,56,,4,,34,,
{4}
2/5-8[8:1],3-6[8:1]/5,3/7-4[8:1],1pp4[2:1]*qq6[2:1],,,,,
{32}
2h[4:1]/B4,B5,B6h[32:22],,,,,,,,,,,,3x,4x,
{2}
5xh[4:1],
{32}
6xh[4:1]/B8,B1,B2h[32:22],,,,,,,,,,,,7x,8x,
{2}
1xh[4:1],
{32}
Ch[4:1]/2x,3x,4xh[32:22],,,,,,,,,,,,6x,7x,
{2}
8xh[4:1],
{4}
3V14[4:1]/7,4-8[8:1],5h[4:1],
{24}
6b,7x,8x,1x,2x,3x,
{16}
4x/7-4[8:1],,6,5,7b,,2,8,1-5b[8:1],8,,7,1,,,,
2-5[8:1],,3,4,2b,,7,1,8-4b[8:1],1,,2,8,,,,
3p7[8:1],,8x,7x,6xb,5x,,
4xh[8:1],,3,4,,7h[16:3]/1,,,5h[8:1],,6,5,,8/2h[16:3],,,
4h[8:1],,3,4,2,6,5,7,1,
8b,,2,2h[8:1],,4,4h[8:1],,5,5h[8:1],,7-5[16:1],,,7x,,,,
3,1h[8:1],,2,8h[8:1],,1,7h[8:1],,8-4[16:1],,,8x,,,,
6,8h[8:1],,7,1h[8:1],,8,2h[8:1],,1-3[16:1],1,,
4-8[8:1],4,,5,5,,6b,,,8-4[8:1],,1,1,,2b,,,,
46,,3,,28,,7,,56,,34,,
2,8,
{48}
1b,2x,3x,4x,5x,6x,
{4}7xh[4:3]/1xh[4:3],,,,
{16}
,,6,5,6-1[8:1],,4-8[8:1],,6,,4,,
{24}
5b,4x,3x,2x,1x,8x,
{4}7xh[2:1],
5p4[8:3]*p4[8:3],5<8[8:1]*<8[8:1],,
1b,
{16}
,,2,5,3,4,3,4,3,4,3,4,5,4,3,4,3,4,3,4,8,4,8,4,8hb[4:1],,,,
{32}
4b,15,26,37,
{16}
48,,
{16}
3,3,,4,3,5,3,6,3,7,
{24}
4,5,4,
{16}
6,3,4,2,4,1,4,2,4,3,4,2,
{24}
7,8,7,2,1,2,
{4}
8b,
{16}
5V71[8:1],5,,3,5,,,,5q2[8:1],5,,3,5,,,,5v3[8:1],5,,3,5-7b[8:1],,4-8[8:1],,5-1b[8:1],,4,,
,,
3,3,4,,6,6,5,,
3,5,2-6[8:1],6,1,7,
{4}
8-5[8:1],4-1[8:1]/8,4/7V58[4:1],
{8}
1-5b[8:1],2,
{16}
A1f,,,,5-1[8:1]/7h[8:1],,,,4h[8:1]/5,,,8,1-6[8:1]/8,,2,,
1/3h[8:1],,,,5-1[8:1]/7h[8:1],,,,4h[8:1]/5,,,8,1-4[8:1]/8,,2,,
1b/3b,,,,
2<8-4[4:1],,,,4V25[4:1],,5,,6-1V74[8:3],,,,
6x,,5x,,4x>1[8:1]*<7[8:1],,,,4b,,,,8-4b[8:1],,,,
A8f,,2,,
3,3,5,,7,,4,4,6,6,5,5,
8,2,7,4,8,3,6,4,7V14V26[8:3],2,5,4,
7,,,,,,
3,3,5,,7,7,1,,12,,8,,78,,
1b/6b,,,,
{8}
3/4V28[4:1],7-4[8:1],4-8[8:1]/8-3[8:1],7,,,
{1}
2b>7[4:1]/6b<3[4:1],,
&inote_6=(142)
{1},{4},,,{8},
{24}
4,3x,2x,
{4}
1xhb[4:1]/5b<8[8:1],,
{16}
2xh[16:3],,,
4,,,,3xb>8[8:1]/4xb<7[8:1],,,,,,,1xb/6xbq1[8:3],,,,
{8}
2,2,3x,
{4}
4b-1[8:1]*-7[8:1],,
{16}
8h[16:3],,,
5,,,,4xb>1[8:1]/7xb<4[8:1],,,,,,,,
8xb-3[8:1],,,
{8}
4V61[16:3],5,4,
2xbq5b[8:3],,,,
{16}
6-1[16:1]*-8[16:1],,,6,,,,
2xbv5[16:1],,,5x,,6x-1[16:1],,,
3xbq6[16:5],,,3x,,2x,,1x,,
{8}
8xb-4[8:1],,,,
{16}
8-3[16:1],,,2<3[16:9]/8,,,4hb[8:3],,,,,,,,,,
5-1[8:1],,,6,56,,,,
{8}
7-5[8:1],,4,3,2-8[8:1]/4x,,7,6,5x-1[8:1],5,2,3,4h[4:1],B7/B8,B7/B8,,
7<5[8:1],5,3<5[8:1],1-5[8:1],3,1,,
2<7[8:1],,27,6-2[8:1],5,4w8[8:1],,,,
6V84[4:1],,5,4,3<6[8:1],,{16}4,,,7x-4[8:1],
{8}
,1,1,,3V14[4:1],4-7b[8:1],3,,,
8<5[8:1],1,2,{16}3-1[16:1],,,34,,,
{16}
7x,7xh[16:3],,,5h[16:3],,4,4,,
2h[16:3],,,4h[8:1],,5,,45,,,,
{8}
6x-4[8:1],7,1,{16}2<7[8:1],,,1x,,,,6x-1[8:1],,,
{8}
4,4,,5V38[4:1],8-5b[8:1],5,,,
1x,2,35,46,{16}7,5<5[16:9],,3,5b,,
{4},,
Ch[4:1],,
{16}
7>2[4:1]/5,,,4,,,3,,
3V51[4:1],,,1,,,8,8xh[16:3],,,1,,7,7,8,,
6-3[8:1],,4,4,,,,,
2h[8:1],,4,4,3,,6,6,5,7,4,8,3,1,2,,
4,34,,5>8[16:9]/7qq6[16:9],,24,,5b/7b,,,,,,,,,
{4},,
1>4b[8:1]/5<8[8:1],15,
{16}
2-5b[8:1],,3,1,2b,,6,6,5-1[8:1],7,,4,5,,,,
2-6b[8:1],,3,1,2b,,8,8,1-5[8:1],7,,2,1,,,,
3p7b[8:1],,7xv1b[8:1],6x,5x,,4x-8b[8:1],5x,6x-2[8:1],,4,,6,,1,,
8xb-2[8:1],,6,5,8xb-6[8:1],3,,3q5b[16:5],8xb,,,,,,,,
7-4[8:1],,6,8,7b,,3,3,4-8b[8:1],2,,5,4,,,,
7-3[8:1],,6,8,7b,,1,1,8-4b[8:1],2,,7,8,,,,
6q2[8:1],,1x,2x,3xb,4x,,
5xh[8:1],,6,5,,2h[16:3]/8,,,4h[8:1],,3,4,,1/7h[16:3],,,
5h[8:1],,6,5,7,3,4,2,8,
1b,,6,6h[8:1],,5,5h[8:1],,4,4h[16:5],,3-1[16:1],,,3x,,
,,7,5h[8:1],,6,4h[8:1],,5,3h[16:5],,4-8[16:1],,,4x,,
,,2,4h[8:1],,3,5h[8:1],,4,6h[8:1],,5-7[16:1],5x,,
8,8-4[8:1],,1,1,,2b,,,
4-8[8:1],,5,5,,6b,,,,
17,,2,,35,,6,,78,,12,,
3,5,
{48}
4b,3x,2x,1x,8x,7x,
{4}6xh[2:1],4q5[8:3]*q5[8:3],4>1[8:1]*>1[8:1],,
8,
{24}
7h[8:1],,,5,,5,6-1[8:1],,4,,,4,{8}6,3,
{24}
8,,8,,,1,7q1[4:1],,7,8h[8:1],,,
{8}
,,2x,3x,4b/E7/B7f,,
{16}
5-7[8:1],5,,2,,,,,
5q1[8:1],5,,2,,,,,
5v3[8:1],5,,2,5,,1,,8w4[8:1],,7,,A8f,,,,
{24}
2h[8:1],,,4,,4,3-8[8:1],,5,,,5,{8}3,6,
{24}
1,,1,,,8,2p8[4:1],,2,1h[8:1],,,
{4}
,7h[1:1],5h[4:3],,,
{8},
{24}
5x/7x,46,35,
{4}2bp7[8:5]/4b,,6-3b[8:1],,
{16}
1xh[8:1],,,,
{24}5,,4,6,,5,
{16}
7,5,7,5,6,5,6,5,4,5,4,5,6,5,6,5,
7,7,5,5,
6-3[8:1],,78,,1-5[8:1]/6,,,,
6,6,,7,8,6,8,6,5,7,5,7,1,6,1,6,4,7,4,7,5,6,5,4,
{24}
5xb,6,7,8,1,2,
{4}3/5h[4:1],
{16}
4-2[8:1],4,,7,,,,,4p8[8:1],4,,7,,,,,
4v6[8:1],4,,7,4,,8,,1,,2,,
{8}
3-1[8:1]/7,4,6-8[8:1],5,2-5[8:1],1,2-8[8:1]/7-3[8:1],8,
2-6b[8:1]/7,,2-4[8:1]/4-7[8:1],,2/4-8b[8:1],,
7,6,1b/5b,,
{24}
2,,2,{16}4,3,
{24}
6,5,6,
{16}4,7,
3,4,3,4,5,4,5,4,2,4,2,4,3,3,5,5,
4-1[8:1],,56,,4b/7b-2[8:1],,,,
27,,,3x,
4,2,4,2,1,3,1,3,5,1,5,1,7,3,7,3,
1,5,7,3,
{24}
5xb,4,3,2,1,8,
{16}
47,,5,,6,6,4,,2,,5,5,3,3,4,4,
1,7,2,5,1,6,3,5,2V85V37[8:3],7,4,5,
2,,,,,,
6,6,4,,3,3,5,,56,,4,,34,,
{4}
2/5-8[8:1],3-6[8:1]/5,3/7-4[8:1],1pp4[2:1]*qq6[2:1],,,,,
{32}
2h[4:1]/B4,B5,B6h[32:22],,,,,,,,,,,,3x,4x,
{2}
5xh[4:1],
{32}
6xh[4:1]/B8,B1,B2h[32:22],,,,,,,,,,,,7x,8x,
{2}
1xh[4:1],
{32}
Ch[4:1]/2x,3x,4xh[32:22],,,,,,,,,,,,6x,7x,
{2}
8xh[4:1],
{4}
3>8[4:1]/7,8<5[4:1],5-2-8[4:1],,
{16}
7-4[8:1],,6,5,7b,,2,8,1-5b[8:1],8,,7,1,,,,
2-5[8:1],,3,4,2b,,7,1,8-4b[8:1],1,,2,8,,,,
3p7[8:1],,8x,7x,6xb,5x,,
4xh[8:1],,3,4,,7h[16:3]/1,,,5h[8:1],,6,5,,8/2h[16:3],,,
4h[8:1],,3,4,2,6,5,7,1,
8b,,2,2h[8:1],,4,4h[8:1],,5,5h[8:1],,7-5[16:1],,,7x,,,,
3,1h[8:1],,2,8h[8:1],,1,7h[8:1],,8-4[16:1],,,8x,,,,
6,8h[8:1],,7,1h[8:1],,8,2h[8:1],,1-3[16:1],1,,
4-8[8:1],4,,5,5,,6b,,,8-4[8:1],,1,1,,2b,,,,
46,,3,,28,,7,,56,,34,,
2,8,
{48}
1b,2x,3x,4x,5x,6x,
{4}7xh[4:3]/1xh[4:3],,,,
{16}
,,6,5,6-1[8:1],,4-8[8:1],,6,,4,,
{24}
5b,4x,3x,2x,1x,8x,
{4}7xh[2:1],
5p4[8:3]*p4[8:3],5<8[8:1]*<8[8:1],,
1b,
{16}
,,2,5,3,4,3,4,3,4,3,4,5,4,3,4,3,4,3,4,8,4,8,4,8hb[4:1],,,,
{32}
4b,15,26,37,
{16}
48,,
{24}
3,,3,,,4,3,,5,4,,6,5,,7,8,7,8,
6,,3,4,,2,4,,1,4,,2,4,,3,4,,2,7,8,7,2,1,2,
{4}
8b,
{16}
5V71[8:1],5,,3,5,,,,5q2[8:1],5,,3,5,,,,5v3[8:1],5,,3,5-7b[8:1],,4-8[8:1],,5-1b[8:1],,4,,
,,
3,3,4,,6,6,5,,
3,5,2-6[8:1],6,1,7,
{4}
8-5[8:1],4-1[8:1]/8,4/7V58[4:1],
{8}
1-5b[8:1],2,
{16}
A1f,,,,5-1[8:1]/7h[8:1],,,,4h[8:1]/5,,,8,1-6[8:1]/8,,2,,
1/3h[8:1],,,,5-1[8:1]/7h[8:1],,,,4h[8:1]/5,,,8,1-4[8:1]/8,,2,,
1b/3b,,,,
2<8-4[4:1],,,,4V25[4:1],,5,,6-1V74[8:3],,,,
6x,,5x,,4x>1[8:1]*<7[8:1],,,,4b,,,,8-4b[8:1],,,,
A8f,,2,,
3,3,5,,7,,4,4,6,6,5,5,
8,2,7,4,8,3,6,4,7V14V26[8:3],2,5,4,
7,,,,,,
3,3,5,,7,7,1,,12,,8,,78,,
1b/6b,,,,
{8}
3/4V28[4:1],7-4[8:1],4-8[8:1]/8-3[8:1],7,,,
{1}
2b>7[4:1]/6b<3[4:1],,
