&title=Georgette Me, Georgette You
&artist=Ave Mujica
&first=-2.2
&des=reflexionis
&lv_5=11+
&inote_5=(71)
{16},,,,,,,,,,,,,,,,
{16}1>7[2:1],,,,,,,,,,,,8qq4[2:1],,,,
{16},,,,,,,,3>5[2:1],,,,,,,,
{16},,,,4pp6[16:5]*qq3[16:5],,,,,,,,,,,,
{16}6pp5[2:1],,,,,,,,,,,,1>5[16:5]*q5[16:5],,,,
{16},,,,,,,,4pp3[2:1],,,,,,,,
{16},,,,6,,,7,,,8b,,,,,,
{16}4-8[16:5],5,3,6,,,,,,,,,4qq4[16:5]*pp4[16:5],5,3,6,
{16},,,,,,,,4,6,3,7h[8:1],,4,6,5,
{16}7,2,,,4,6,3,7h[8:1],,4,6,5,7,1,,,
{16}52,3,3,47,6,6,5/2h[16:3],,,,{16},,3,5,4,6,
{16},,6,4,5,3,,,5,3,6,2h[8:1],,5,3,4,
{16}2,7,,,47,6,6,52,3,3,4/7h[16:3],,,,,,
{16}6,4,5,3,,24,3,5,4,6,,4,3h[16:3]/5,,,7h[16:3],
{16},,3,5,4,6h[16:3],,,1qq3[16:10]*<4[16:5],,,,,,,,
{16},,,,4<8[16:5]*q1[16:5],,,,,,,,,,,,
{16}34,,81,,65,,65,,8<8[16:6]/1,,34,,81,,,,
{32},,,,,,1,2,3,4,6h[16:3]/5,,,,,,5qq7[16:10]*>8[16:5],,,,,,,,,,,,,,,,
{16},,,,8pp3[16:5],,,,,6,6,,,5,,,
{16}4h[8:1],,5h[8:1],,6h[8:1],,7h[8:1],,8h[8:1],,1h[8:1],,2>2[2:1]*<2[2:1],,,,
(142)
{16},,,,,,,,,,,,,,,,
{16},,,,,,,,,,,,34,,2-5[8:1]/5-8[8:1],,
{16}1,,5b/2b,,,,7-4[8:1]/4,,6,,7/3-8[8:1],,2,,3b/5b,,
{16},,2,4,2,,3-1[8:1]/5-7[8:1],,26,,3b/5b,,,,8h[4:1]/2,,
{16}3,,4h[4:1],,7,,6b,,3,4,3,4,3,,2v5[8:1]/6-1[8:1],,
{16}15,,2b/6b,,,,7/4-1[8:1],,3,,4/5-8[8:1],,6,,2b/5b,,
{16},,3-1[8:1]/4,,2,,3/5-2[8:1]*-8[8:1],,6,,5b,,,,1h[4:1]/7,,
{16}6,,5h[4:1],,2,,3b,,6,5,6,5,6,,7-4[8:1]/4-8[8:1],,
{16}3,,7b/4b,,,,5/1-5[8:1],,2,,1/7-4[8:1],,6,,3b/7b,,
{16},,46,,57,,8-3[8:1],,4,,8b-5[8:1],,4,,8b,,
{16}4,,5/3-1[8:1],,26,,3b/5b,,7,8,5,4,7,,1-5[8:1],,
{16}8,,1b/7,,6,,53,,24,,1-5[8:1],,2,,1b/3,,
{16}4,,57,,6/8h[8:1],,4b,4b,2h[8:1],,6b,6b,8h[8:1],,2b,2b,
{1}4w8[8:5],
