&title=脱法ロック
&artist=Neru feat. コゲ犬、赤ティン
&first=0.102
&des=Kurage
&lv_5=13+
&inote_5=(155){4},,5s1[8:2],,
2h[4:2],B3,{16}4h[16:3],,,3,,,{8}2/5pp5[16:7],,3h[8:1],,4h[4:1],,,,,
{4}7h[4:2],B6,{16}5h[16:3],,,6,,,{8}7/4qq4[16:7],,6h[8:1],,5<1[16:3],,,,,
3-1[32:3]/4,,8,,6-8[32:3]/5,,1,,3-6[8:1]/4,,6,,7-2[8:1]/8,,2,,3-7[8:1]/4
,,8,,6-2[8:1]/5,,1h[16:1],1h[16:1],4pp4[8:2]*qq4[8:2],4,,,
{8},1h[16:1]/7h[16:1],8bw4[8:1],,
Cf,,1x-7[32:3],,2-6[8:1],,3-5-1-7[12:4],,8h[8:1],,6>1>6b[4:2],,A8/E1,,A7/E7,,
C,,1-3[32:3],,8-4[8:1],,7-3-5-8[8:3],,2h[8:1],,1>6>1b[4:2],,A7/E7,,A8/E1,,
C,,8-2[32:3],,7-3[8:1],,6-4-8-2[12:4],,1h[8:1],,3<8<3b[4:2],,A1/E1,,A2/E3,,
C,,8-6[32:3],,1-5[8:1],,2-6-4-1[8:3],,7h[8:1],,8<3<8b[4:2],,A2/E3,,A1/E1,,
4x,2,35,6,{16}7h[16:3]/8,,,6h[16:3],,,5-8[8:1],,{8},4,4,1<6[8:1]/4v2[8:1],,,,3,
5,7,46,3,{16}2h[16:3]/1,,,3h[16:3],,,4p8[8:1]*q8[8:1],,{8},,,1-5[4:1]/7-3[4:1],,,,,
2xb/6xb,2xb/6xb,5,3,{16}4/8h[16:3],,,6h[16:3],,,{8}5-8[8:1],,4,4,1-5[8:1]/4-8[8:1],,,,67,
6h[8:1]/7h[8:1],,58,5q7b[32:10]/8>6b[32:10],,,{16}E4,E5,{8}E6,,{16}8xbh[16:1]/4xbh[16:1],,A7/B7/E7f/B6/A6/E6/D6,,,,,,2,2,4,3,5,4,
{8}6x-3[8:1],6x/3x,,1h[8:2],,4p8[8:1],4,3xh[8:2],,4xp7[8:1],4,3xh[8:2],,{16}5,5,{8}6xb/4xb,,
1/2-4[32:3],4,2/7-5[32:3],5,{16}78,,,2qq7[8:3]/4,,,E1f/B1/B8,,{8},6x,6x-3b[8:1],,4-2[8:1]*-8[8:1],,,,
3x-6[8:1],3x/6x,,8h[8:2],,3v5[8:1],3,6xh[8:2],,7x>2[8:1],7,6xh[8:2],,{16}4,4,{8}3xb/5xb,,
47,35,46,25,3/7x,1<3b[32:9]/5x,3xh[16:1]/8h[16:1],6/1x,,,B8/B1/E1f/A8/A1,,,6b/5b,7b/8b,1b/2b,
{8}3b-7[8:1]/4b-6[8:1],,3b-1[8:1]/4b-8[8:1],,3b/4b,,2v5[8:1]/7,1,6>4[32:3],7,3v6[8:1]/6,2,7<5[32:3],8,47,3,
2b-8[8:1]/4b-1[8:1],,2b-5[8:1]/4b-6[8:1],,2b/4b,,7v4[8:1]/2,8,3<5[32:3],2,6v3[8:1]/3,7,2>4[32:3],1,52,6,
3b-6[8:1]/7b-2[8:1],,3b>8[8:1]/7b<4[8:1],,3b/7b,,2-7[8:1]/6,1,6-3[8:1],5,2-7[8:1]/6,1,6-3[8:1],5,26,1,15,6<1[8:1]/2>5[8:1],,62,,8-5b[8:1]*z4b[8:1]/4,,8b,,{16}3,4,1,8,5,6,1-5[8:1],7,3,5,1b,,,,
{8}5b<7[8:1]/4bq8[8:1],,4b>2[8:1]/5bp1[8:1],,4b/5b,,7-3[8:1]/3,8,2-5[8:1],1,2/6>3[8:1],7,2v5[8:1],1,25,6,3b-6[8:1]/7b-2[8:1],,3b>8[8:1]/7b<4[8:1],,3b/7b,,6-3[8:1]/2,5,2-7[8:1],1,6-3[8:1]/2,5,2-7[8:1],1,62,5,
3b-6[8:1]/4b-6[8:1],,4bp7[8:1]/3b>8[8:1],,3b/4b,,4-6[32:3]/3,5,3-8[8:1],2,4-6[32:3]/3,5,3-8[8:1],2,34,5,15,3<6[8:1]/7>2[8:1],,37,,8-5b[8:1]*z4b[8:1]/4,,8b,,{16}6,5,8,1,4,3,8-4[8:1],2,6,4,8b,,,,
{4}5x-1[8:4]/6,6,6,6,{8}37,3h[8:1]/7h[8:1],,,6-4[32:3]/4,4h[8:1]/6,,,
{4}2/5x-1[8:4],2,2,2,{8}48,4h[8:1]/8h[8:1],,,26,26,{16}3,4,3,4,
{8}3<6[4:1],,6<1[4:1],,1>4[4:1],,4<7b[4:1],,7>2[4:1],,2>5b[4:1],,5<8[4:1],,8>3b[4:1],,3<6b[4:1],,6<3b[8:3],,Ch[8:3],,,,,A5,A6/A4,B3/B7/A3/A7,B2/A2/B8/A8,{16}1x,1x,{4}2b/8b,
{64}5pp4[32:7]/3xb,D3,A2,D2,A1,D1,A8,D8,A7,D7,,,,,,,{4}3xb>6b[32:5]*p6[32:5],{64}3xb,D3,A2,D2,A1,D1,A8,D8,A7,D7,,,,,,,{8}4x-7[8:1]/5x,3,1-5[8:1],2,1/3-7[8:1],2,8-5[8:1],1,28,4,
{64}4qq5[32:7]/6xb,D7,A7,D8,A8,D1,A1,D2,A2,D3,,,,,,,{4}6xb<3b[32:5]*q3[32:5],{64}6xb,D7,A7,D8,A8,D1,A1,D2,A2,D3,,,,,,,{8}5x-2[8:1]/4x,6,8-4[8:1],7,8/6-2[8:1],7,1-4[8:1],8,71,5,
{64}5pp4[32:7]/3xb,D3/E3,A2,D2/E2,A1,D1/E1,A8,D8/E8,A7,D7/E7,,,,,,,{4}3xb>6b[32:5]*p6[32:5],{64}3xb,D3/E3,A2,D2/E2,A1,D1/E1,A8,D8/E8,A7,D7/E7,,,,,,,{8}4x<7[8:1]/5x,3,1-5[8:1],2,1/3-7[8:1],2,8<5[8:1],1,28,4,26,8v5[8:1]/4v1[8:1],,8>3[8:1]/4<7[8:1],,8z4b[8:1]*-5b[8:1]/4,,8b,,{16}3b,4,1b,8,5b,6,{32}3b,4,5,6,7,8,17,26,{4}3b/5b,
{16}4/6-3b[16:1],,,1-5b[16:1]/6,,,8-3b[16:1]/1,,,8/4w8[16:9]*w8[16:9],,,4b,,,,,,,,,,,,{8}2x/6x,2x/6x,,,
3/4-2[32:3],,4/6-8[32:3],,5-1[8:1]/6,,5/7-1-5-3[12:4],,4h[8:1],,2<5<2b[4:2],,A4/E5,,A3/E3,,4-2[32:3],,4/6-8[32:3],,5-1[8:1]/6,,5/8-3[8:1],7-4[8:1],8,7,2,1>6b[16:3]/5,,7,7v4b[8:1],8,
5-7[32:3],,3-1[32:3]/5,,4-8[32:3],,4/2-8-4-6[12:4],,5h[8:1],,7>4>7b[4:2],,A5/E5,,A6/E7,,5-7-1-3b[32:7],,6b,,4-2-8-6b[32:7],,3b,,5w1b[8:1],,5b,,4w8b[8:1],,4b,,26,26,3h[4:1],,4h[4:1],,5h[4:1],,6-2[8:1],,4z8[8:4],,
