&title=VS RENDA
&artist=LuzeriA
&first=0
&des=N
&lv_5=14
&inote_5=(186)
{8},
,,,,,,,{64},,,
{8}3,3,5,6,4,5,2,6,3,3,5,6,4,5,3,6,
{8}2,3,6,6,4,3,5,5,2,3,6,6,4,3,5,5,
{8}2,2,5,6,3,3,7,6,2,3,5,6,2,4,6,7,
{8}2,7,3,5,4,6,3s7[4:1],3,7,6,5,5,5w1[8:1],,,,
{64},,,
{4}3h[8:1]/7-4[8:1],1h[8:1]/7,3h[8:1]/6-1[8:1],4h[8:1]/6,
{4}3h[8:1]/8-5[8:1],2h[8:1]/8,1h[8:1]/4-7[8:1],2h[8:1]/4,
{4}6h[8:1]/1-4[8:1],8h[8:1]/1,6h[8:1]/3-8[8:1],5h[8:1]/3,
{4}6h[8:1]/1-4[8:1],7h[8:1]/1,8h[8:1]/5-2[8:1],7h[8:1]/5,
{8}18,,7/5-8[8:1],6,4/5,,3/1-4[8:1],2,8/1,,7-4[8:1]-1[8:1]/2,3,4/7,,8z4[4:1],,
{8}4b,,,,{64},,,,,{8}1b/7b,,,,1b-4[8:1],,7b-2[8:1]b,,3b-6[8:1],,8b-5[8:1]b,,
{8}4bh[8:1],,6,B1/E2/B2,,3,B8/E8/B7,,6,B4/E4/B3,,3,{16}B5/E6/B6,E7,E8,E1,E2,E3,E4,E5,
{8}5xh[8:1],2,6h[8:1]/3,4,7h[8:1]/3,3,2,1/6,
{8}7-5[8:1],B2,7-1[8:1],B4,7-4[8:1]<5[16:1]-8[8:1],B3,7,B1,2>5[8:1],,2/7,6-1[8:1]b,,,2v5[8:1],,2/8,,7,6v1[8:1]b,,2/6,3,4,
{8}3h[8:1],7,3h[8:1]/6,5,2h[8:1]/6,6,7,8/3,
{8}2-4[8:1],B7,2-8[8:1],B5,2-5[8:1]>4[16:1]-1[8:1],B6,2,B8,7<4[8:1]b,,7/2,3-8[8:1],,,7v4[8:1]b,,7/1,,2,3v8[8:1],,7/3,6,5-1[8:1],
{16}1V75[4:1]b,,5,,,,2>4[8:1],,,,2,,,,,7,,,,,1,8,1b,,1,1,1,1,
{8}1b,2,8h[8:1]/3,4,7h[8:1]/3,3,2,1/6,7h[8:1]/2,3,6h[8:1]/4,4,3,38,3,37,3,2/7h[8:1],2,3/6h[8:1],3,4-1[8:1],4,7v4[8:1],7,2<7[8:1]b,2,
{16}6bx,A5,A4,A3,A2,A1,A8,A7,A6,A5,,,,,,
{16}2-4[8:1],8,1,1,2b,,,,6-8[8:1],4,5,5,6b,,,,,1b,1,1,1,2/8,,37,,45,,7/1,,62,,5b-7[16:5]-3[16:8]-1[16:5]s5[16:15]/4bh[4:1],,
{8},,,E2,,,,{16},{8}E4,,,,E3,,,,5>6[16:22],,,,,,{16},{8},,Ch[16:8],,,,,,,,
{16}4,5,4,,3,5,3,,36,,3,,27,,2,,
{16}2,7,2,,2,8,2,,27,,2,,16,,1,,
{16}1,5,1,,1,6,1,,16,,1,,37,,3,,
{16}4,8,4,,4,7,4,,38,,27,,16,,78,,
{16}6,3,6,,6,4,6,,63,,6,,72,,7,,
{16}7,2,7,,7,1,7,,72,,7,,83,,8,,
{16}8,4,8,,8,3,8,,83,,8,,62,,6,,
{16}5,1,5,,5,2,5,,61,,72,,83,,21,,
{16}8/3,,2h[8:1]/7,6,5,,3h[8:1]/8,7,6,,1,,37,,26,,
{16}7/3,,2h[8:1]/8,7,6,,3h[8:1]/7,6,5,,48,,3,,27,,
{16}1/6,,7h[8:1]/2,3,4,,6h[8:1]/1,2,3,,8,,62,,73,,
{16}2/6,,7h[8:1]/1,2,3,,6h[8:1]/2,3,4,,8h[8:2],,1,,2,,
{16}1>4[8:1]/7,6,5,,4/1,,6,,2-5[8:1]/8,7,6,,2/5,,7,,
{16}8v5[8:1]/4,3,2,,81,,2,,7<4[8:1]/8,1,2,,7/3,,1,,
{16}7-5[8:1]/2,3,4,,1,2,3,,2-4[8:1]/7,6,5,,8,7,6,,
{8}5,4,36,27,
{16}1,2,3/7,6,5/1,2
,3/8,7,6,
{8}3,24,6,24,3,24,7,24,
{8}6,75,3,75,6,75,2,75,
{16}2,4,2,4,7,5,7,5,3,4,3,4,6,5,6,5,4,4,4,4,5q1[6:1]-6[6:1]*p1[6:1]-4[6:1],5,5,5,
{8}5b,,,,
{8}5,,43,32,,21,18,,87,76,,65,{16}4,,6,6,6,6,,,
{8}54,,56,67,,78,81,,12,23,,34,{16}5,,3,3,3,3,,,
{8}45,,43,42,,21,28,,87,86,,65,{16}4,,6,6,6,6,,,
{8}54,,56,57,,78,71,,12,13,,34,{16}5,,3,3,3,3,,{16}
{8}5h[8:3],,4,4h[8:3],,3,3h[8:3],,2,2h[8:4],,{16}1,,1,8,7,6,5,4h[8:4],,
{8}3,{16},{8}6,6h[8:3],,7,7h[8:3],,8,8h[8:3],{16},1,,1,2,3,4,5,6h[8:2],,
{8}2,2,27,26,2,25,26,2,27,26,2,2,28,2,
{16}27,6,25,4,,2,,2,,
{16}2,5,2,5,2,6,2,6,1,7,1,7,8,8,8,8,8,8,8,8,8,8,8,8,8,8,8,8b,8,8,8,8,8,8,8,8b,8,8,8,8,8,8,8,8b,8,8,8,8,8,8,8,8b,8,8,8,8,8,8,8,8b,8,8,8,8b,8,8,8,8b,8,8,8,8b,8,8,8b,8,8b,8,8bw4[8:1],8,8b,8b,8b,,,,,,,,2/C,,,,6/C,,,,
{8}2h[8:1]/5,6,3h[8:1]/8,7,46,2,3h[8:1]/8,7,6/4h[8:1],5,3,6,35,{16}4,4,4h[8:1],,,,
{8}6h[8:1]/3,4,7h[8:1]/3,2,53,7,6h[8:1]/1,2,3/5h[8:1],4,7,3,64,{16}5,5,5h[8:1],,,,
{8}2h[8:1]/6,7,81,36,2h[8:1]/5,6,71,83,1-7[8:1]/4,3,2,3,26,{16}4,4,4h[8:1],,,,
{8}6h[8:1]/3,2,18,63,7h[8:1]/4,3,28,16,8-2[8:1]/5,6,7,6,73,{16}5,5,5h[8:1],,,,
{16}E1,E2,E3,E4,
{16}6,6,,,84,84,,,3,3h[16:10],,8,,7-5[8:1],7,,,,,,,4,4,4,4,4,,
{8}3h[8:1]/6,7,25,6,7h[8:1]/4,3,84,3,1h[8:1]/2,4,38,16,28,{16}1,1,1,1,1,,
{16},38,3/8,,,5,5,5h[16:1],,,2,4,2,,15,15,,,7h[16:5],,,,1,,8,8,8,8,8h[8:1],,,,,,2,26,
{16},,8,,26,,,,1,,35,,,,8,,46,,,,37,,1b,1b,1b,1b,1b,,,,
{16}1,,2V46[24:11]V42[24:11],,,,
{12}6,,,,1,,,8,,,,7,,,,
{8}1/Ch[8:1],2h[8:1],6,5-1[8:1]b,,1,2>3[24:1]-5[24:2],,,6<1[8:1]b,,1,,2,3V17[4:1],,7,6,5,
{32},
{8}1h[8:1]/6,6,28,3,4h[8:1]/7,6,8<5[8:1]b/3,8,1v4[8:1],1,7,7,{16}62,,8,8,8,8h[16:1],,,
{8}1v6[8:1]b/7,3h[8:1],1,8v3[8:1],5,8,1-6[8:1]b,4,1,8-3[8:1],5,8,{16}7,,1,1,1,1h[16:1],,,
{16}8,,7V53[24:11]V57[24:11],,,,
{12}3,,,,8,,,1,,,,2,,,,
{8}8/Ch[8:1],7h[8:1],3,4-8[8:1],,8,7<6[24:1]-4[24:2]b,,,3>8[8:1],,8,,7,6V82[4:1]b,,2,3,4,
{32},
{8}8h[8:1]/3,3,71,6,5h[8:1]/2,3,1>4[8:1]/6,1,8v5[8:1]b,8,2,2,{16}37,,1,1,1,1h[16:1],,,
{8}8v3[8:1]/2,6h[8:1],8,1v6[8:1]b,4,1,8-3[8:1],5,8,1-6[8:1]b,4,1,{16}2,,8-4[8:1]*-4[8:1],8,8,8-3[16:5]V17[2:1],8b-5[4:1]V71[2:1]b,,,,,,,,,,,,,,,,,,,
{16}A1,A2,A3,,E7,E6,E5,,B1,B2,B4,,,,,,
{8}8bx<5[8:1]b,1,2,3v8[8:1],4,5,6<1[8:1]b,1,
{16}2bx,3,4,5,6,7,8,1,
{8}2-6[8:1]/6,48,2b/6b,,
{16}7V13[4:1]b,4h[16:1],6,,3bx/7bx,4,5,6,
{16}7,8,1,2,3v8[8:1]/7,6,5b/1,2,3bx/8bx,,6,6,6bx-2[8:1]b,,6bx,,6bx,,,,,,1,8,
{8}1bx>4[8:1],8,7,6v1[8:1]b,5,4,3>8[8:1],8,
{16}7bx,6,5,4,3,2,1,8,
{8}7-3[8:1]b/3,51,7b/3b,,
{16}2V86[4:1],5h[16:1],3,,6bx/2bx,5,4,3,
{16}2,1,8,7,6v3[8:1]/2,3,4b/8,7,6bx/3bx,,1,1,1bx-3[8:1],,1bx-7[8:1]b,,1bxs5[6:1]*s5[6:1],,1bx,,1bx,,,,,,
{16}6-1[8:1]b,,4,,6,,3h[8:1],,2,3,1,2,8,1,7,2,6b-4[8:1]b,,1,1,6b<8[8:1]b,,3,3,6bx,,,,
{16}3,1,2,8,1,7,8,6,5,7,4,6,3v8[8:1],5,2,4,3b,,,,7/1,7/1,7-3[8:1]/1-3[8:1],,7b/1b,,7bx<5[8:1]/1bxp5[8:1],,,,,,,,,3,4,
{16}3<6[8:1],,8b-5[8:1]b,,3,,8bv3[8:1]b,,3,,8b<5[8:1]b,,2,,8b,1,1,,2,,3,,4/8-4[8:1]b,,26,,4bx/8bx,,,,
{16}3,3,3,3,3,3,3,3,3,3,3,3,3,3,3,3,3,3,3,3,3,3,3,3s7[16:3],3b-8[8:1]*-6[8:1]b,3b,3b,3b,3b,,,,
{8}5h[8:3],,4,2h[8:3],,4,7h[8:3],,5,1h[16:7],,4,7,{16}7,7,7,7,7,7,7,7,7,7,
{12}7,7,7,{8}7,7,{24}7,8,1,2,3,4,5,6,{16}7b,,,,,2/Chf[16:10],2,2,,,2,,,2,,2b,,
