&title=Rightfully
&artist=Mili/TVアニメ「ゴブリンスレイヤー」OPテーマ
&first=1.53
&des=Ragna
&wholebpm=91-182
&demo_seek=56.7
&demo_len=20.4
&des_5=Ragna
&lv_5=12+
&inote_5=(91){1}1-5[8:56],2,3,4,6,7,8,1-5[8:4],
{8}1v3[8:1]/5v7[8:1],26,,,8v6[8:1]/4v2[8:1],37,,,
1^4[8:1]/5^8[8:1],,1pp8[16:5]/5pp4[16:5],,,,,,
1>5[3:2],,,,4<8[3:2],,,,7>3[3:2],,,,5,,,,
8v5[8:1]/4v1[8:1],37,,,1v4[8:1]/5v8[8:1],26,,,
8qq5[16:8]/4qq1[16:8],,,,,,,,
1-5[8:1]/5-1[8:1],37,,,8-4[8:1]/4-8[8:1],26,,,
1pp5[16:8]/5pp1[16:8],,,,,,,,
(182){8}8/4-1[8:4],,7,,6,,5,,
4-7[8:4]/8,,1,,2,,3,,
8/4-1[8:4],,7,,6,,5<4[8:5],5,
,,,,,,,,
1V35[16:10],,5,,6,,7,,
8V64[16:10],,4,,3,,2,,
1V36[16:10],,5,,6,,7,,
8V63[16:10],,4,,3,,2,,
1s5[16:10],,5,,6,,7,,
8<4[4:1],,4p6[4:1],,1,,,,
4b/5h[4:1],,3,,2h[4:1]/1,,8,,
7/5-3[8:1],,6,,4-6[8:1]/2,,3,,
5h[4:1]/7,,8,,1h[4:1]/2,,3,,
2/4-8[8:1],,3,,5-1[8:1]/7,,6,,
4b>5[16:5]/2h[2:1],,,,,,2v1[8:1],4,
2,,7v8[8:1],5,7,,,,
6h[4:1]/4,,3,,1/2h[4:1],,8,,
7/5^3[8:1],,6,,4^6[8:1]/2,,3,,
5bs1[16:7]/7b,,,,6,,6,,
8z4[16:7]/2,,,,3,,3,,
3s7[16:7]/5,,,,8,,8,,
7-4[8:1]/1,,7s3[4:1]/2,,,,,,
8b>6[16:7]/2b,,,,8,,8,,
5>7[16:7]/3,,,,5,,5,,
8<2[16:7]/6,,,,8,,8,,
6^1[8:1]/1,,6/2z6[4:1],,,,,,
{16}3b/5h[2:1],,,8,,,1,,1-4[8:1]*-6[8:1],,,,1,,,,
3h[2:1]/5,,,1,,,7,,7v4[8:1]*v2[8:1],,,,7,,,,
3/5h[2:1],,,7,,,1,,1^4[8:1]*^6[8:1],,,,1,,,,
5-2[8:1]*-8[8:1],,,,5s1[4:1],,,,,,,,,,,,
2b/8h[8:3],,,6,,,3,,4-1[8:1]/5-8[8:1],,,,45,,,,
2h[8:3]/7,,,4,,,7,,1v4[8:1]/8v5[8:1],,,,18,,,,
3/6h[8:3],,,8,,,3,,4^1[8:1]/5^8[8:1],,,,45,,,,
{8}2^5[4:1]/7,,5^8[4:1],,8^3[4:1],,3<3[4:5],,
,7s3[8:7],,,{1},E
