&title=SUPERNOVA
&artist=Kyotsugyon
&first=0.061
&des=7DPOLY
&lv_5=14.9
&des_5=7DPOLY
&inote_5=
(252){16},,,,,,,,,,,,,,,,
{1},
{4},,,,,,,,1,
6,2,8,
3,7,4,8<6[8:1],
{16}1,2,{8}3,,,,,,,,,,,,,,,{4}8,
3,7,1,
6,2,5,1>3[8:1],
{16}8,7,{8}6,,,,,,,{2}2>5[4:1],
6<1[4:1],
{4}3,6,2,8,
3,7,4,8<5[16:3],
{16}1,2,3,4,,,,,,,,,,,,,{1}Ch[2:1],
{4}5,2,6,4,
7,3,8,1>4[4:1],
{16}8,7,6,5,{1},{4},,,6h[8:1],
{8}6,3h[8:1],,3,{4}8h[8:1],
{8}8,1h[8:1],,1,{4}7h[4:1],{8}4,5,
{4}3h[8:1],{8}3,6h[8:1],,6,{4}1h[8:1],
{8}1,8h[8:1],,8,{4}2h[8:1],{8}5,{24}4,5,6,
{4}7h[8:1],{8}7,2h[8:1],,2,{4}5h[8:1],
{8}5,4h[8:1],,4,{4}6h[4:1],{8}1,8,
{4}7h[8:1],{8}7,2h[8:1],,2,{4}5h[8:1],
{8}5,4h[8:1],,4,{4}6h[8:1],{8}1,8,
{4}1h[8:1],{8}1,8h[8:1],,8,{4}2h[8:1],
{8}2,7h[8:1],,7,{4}2h[8:1],{8}1,8,
(220){4}7,6xh[8:3],{8},5xh[16:5],{16},,,4xh[16:5],
,,,,{4}3xh[8:1],{8}2,2,1,1,
(210){4}8,3,6,2,
(190)5,3,7,1>4[0.3158##0.25],
(180){16}8,7,6,5,,,,,,,,,,,,,{1}Ch[4:3],
(252){8}3,4,3,6,5,6,{4}3h[4:1],
{8}6,6,5,6,{4}8/1,7/2,
{8}6,5,6,3,4,3,{4}6h[4:1],
{8}3,3,4,3,{4}1/8,2/7,
{8}2,1,2,7,8,7,{4}2h[4:1],
{8}6,6,8,7,{4}3/6,5/4,
{8}7,8,7,2,1,2,7,8,
{4}Ch[4:3],{16},,,,,,,,5x,4x,3x,2x,
{4}1-5[8:1],{8}1,8-4[8:1],,8,{4}2-6[8:1],
{8}2,7,7/5,7/5,{16}1,8,1,8,1,8,1,8,
{4}1-5[8:1],{8}1,8-4[8:1],,8,{4}2-6[8:1],
{8}2,7,,,5/1,1/5,{4}7/3,
2-6[8:1],{8}2,1-5[8:1],,1,{4}8-4[8:1],
{8}8,7,,,1/8,1/8,1/8,{16}1x/8x,1x/8x,
{4}2/7-3[8:1],{8}7,8-4[8:1],,8,{4}1-5[8:1],
{8}1,2,,,{4}2/Cf,7/Cf,
2-6[8:1],{8}2,8,,,{4}B1/B8/A8/D1/A1/D8/E8/E2/D2/E1f,
4-8[8:1],{8}4,6,{4}E7f/E6/B6/A6/D7/A7/B7/E8/D6/D8,E3f/A2/B2/E2/D2/D3/A3/B3/E4/D4,
6-2[8:1],{8}6,4,E5,C,{4}E1f/A8/D1/A1/D2/E2/B1/B8/E8/D8,
1-5[8:1],{8}1,7,E4f/B3/B4,E6f/B6/B5,{4}E1f/D1/B8/B1/A1/A8,
{8}7,8<5[8:1],1,2,3>8[8:1],4,5,6>3[8:1],
7,8,,,1/8,1/8,8/1,1/8,
{6}8h[6:5],{12},,,,,,,,3,4,
3,6,5,6,3,4,2,6,5,7,2,1,
2,7,8,7,2,1,3,7,8,6,1,8,
{2}7<2[4:1],{32}1x,8x,7x,6x,5x,4x,3x,2x,1x,8x,7x,6x,5x,4x,3x,2x,
{8}5bx/1bx,5,5,3/5,3,3,6/4,{16}6,5,
{8}6,3/6,3,3,{16}5,4,5,4,{8}5,{16}6,7,
{8}8/4,{16}4,5,{8}4,6/4,6,6,3/5,{16}3,4,
{8}3,6/3,6,6,{24}4,5,4,5,,,4,5,4,5,{48},,,,3,
,,,,,,3,,,,,{16}5,3,5,3,{8}5,3,6/4,{16}6,5,
{8}6,3/6,3,3,{16}5,4,5,4,{8}5,5,
{4}3/6,{8}3/6,4/5,,5/4,{4}3/6,
{8}3/6,2/7,,7/2,{4}3/6,{8}3/6,5/4,
,,5/4b,5,4/5,4/5,6/3b,{16}6,5,
{8}6,6,4/6b,5,{24}4,5,4,5,,,4,5,4,5,,,{8}5,
{24}4,3,2,{8}1/5,5/1,{24}5,6,7,8/4,,,{8}4/8,{24}4,3,2,
{8}1/5,5/1,{24}5,6,7,8/4,,,{12}1x/8x,2x/7x,6x/3x,4x/5x,6x/3x,7x/2x,
{16}1,8,{8}1,{16}1,8,1,8,{8}1,{16}1,8,1,8,{8}1,
1,1,1,1,{16}1,8x,{24}1x,2x,3x,{32}8x,7x,6x,5x,4x,3x,2x,1x,
{4}8b/4-8[16:1],{8}4,5-1[16:1],,5,{4}6-2[16:1],
{8}6,7-3[16:1],,7,{4}2-6[16:1],{8}2,8-4[16:1],
,8,{4}1-5[16:1],{8}1,7,,7,
(168)2,2,2,2,{16}2,7,2,7,2,7,2,7,
{1}2s6[2:1]*z6[2:1],
{8}3,{16}3,4,{8}3,6,{16}6,5,{8}6,2,{16}2,1,
{8}2,7,{16}7,8,{8}7,{16}3,4,{8}3,{16}6,5,{8}6,
7,{16}7,8,{8}7,2,{16}2,1,{8}2,6,{16}6,5,
{8}6,3,{16}3,4,{8}3,{16}7,8,{8}7,{16}2,1,{8}2,
3/5,{16}3,4,{8}3,6/4,{16}6,5,{8}6,2/8,{16}2,1,
{8}2,7/1,{16}7,8,{8}7,{16}3,4,{8}3,{16}6,5,{8}6,
7/5,{16}5,6,5,6,5,3,4,3,{8}4,{16}6,5,6,5,
6,3,{8}4,{16}4,3,4,3,{8}7,7,{16}7,8,1,2,
3x,5,4,5,4,5,2x,5,4,5,4,5,1x,5,4,5,
4,5,2x,5,4,5,4,5,3x,4,3,3,6x,5,6,6,
7x,4,5,4,5,4,7x,4,5,4,5,4,8x,4,5,4,
5,4,6x,4,5,4,5,4,6x,5x,{8}6x,{16}6x,5x,{8}6x,
{16}8x,6,2,6,2,6,4x,6,2,6,2,6,8x,6,2,6,
2,6,4x,6,2,6,2,6,8x,6,2,6,4x,6,2,6,
3x,4,3,4,3,4,5x,6,5,6,5,6,2x,1,2,1,
2,1,{8}3x,{16}8,7,2,3,{8}4,{16}6,7,{4}8,
{16}1x,3,7,3,7,3,5x,3,7,3,7,3,1x,3,7,3,
7,3,5x,3,7,3,7,3,1x,3,7,3,5x,3,7,3,
6x,5,6,5,6,5,4x,3,4,3,4,3,7x,8,7,8,
7,8,{8}6x,{16}1,2,5,6,7,3,{24}3,5,6,{12}7,4,4,
{16}3x/8x,1,2,3x/8x,1,2,3x/8x,1,2,3x/8x,1,2,3x/8x,5,6,4x/7x,
5,6,4x/7x,5,6,4x/7x,5,6,(224){8}7x,7/4x,4/7x,7/4x,
{16}4/7x,3x,6x,3x,6x,3x,6x,3x,{2}8z4[4:1],
8xh[1:1],5h[2:1],
{4},8,8,{12}8,7,6,
{4}5,5,{8}5,,,5s1[2:1]/1>8[2:1],
,,,,,,,,,,{4}5,
{2}5,
{8},,5,{16}5,6,{4}7,8,
8,8b/4b,{2}4bh[2:1]/8bh[2:1],
{8},,4,{16}4,3,{4}2,4,
8/1,1,{2}8h[2:1]/1h[2:1],
{4},8,8,{12}8,7,6,
{4}5,5,{8}5,,,5q4[2:1]*<4[2:1],
,,,,,,,,,,{4}5>2[8:1],
{2}5-1[0.5357##0.2679],
{8}5,{16},,,,5,6,7h,8h,,,,,,,{4}8,
4,{2}8/4-8[0.5357##0.2679],
{8}4,{16},,,,4,3,2h,1h,,,,,,,{8}8,
{16},,,,8,7,{2}6b/4h[8:19],
{4},8,8,{12}8,7,6,
{4}5,5,{8}5,,,5h[8:9],
,,,,4,,,4h[8:17],
,,{4}5,{2}5,
{8},,5,{16}5,6,{4}7,8,
8,8b/4b,{2}4bh[2:1]/8bh[4:3],
{8},,4,{16}4,3,{4}2,1,
8/1,1,{2}1h[2:1]/8h[2:1],
{4},5,6,6,
7,7,{8}8v5[0.4018##0.2679],,,8,
,,,,4,,,4,
,,{4}8,{2}4h[4:1]/8h[4:1],
{8}4h[4:1]/8h[4:1],{16},,,,8h/4h,7h/3h,{2}6h/2h,
5/1,8b/Cfh[2:3],
,,B7/E7/B6/B2/E3/B3,
{8}2b/7b,1,8,2b/7b,
{16}2,3,4,5,2,3,4,5,2,3,{8}4,7,7,
{16}3,6,3,6,2,7,2,7,1,2,3,4,1,2,3,4,
8,7,6,5,8,7,6,5,1,2,3,4,2,3,4,5,
8,7,6,5,7,6,5,4,{8}2b,3,4,6b/3b,
4,5,4b/7b,5,6,6b/3b,4,5,
{16}2,7,2,7,3,6,3,6,{8}2b,1>4[8:1],8,7b,
6<1[8:1],5,4b,3<6[8:1],2,1b,8,1,
7b/2b,7/2,6b/3b,3/6,2b/1b,2,2,1b/8b,
8,8,7b/2b,{16}3,4,{8}8,8,6,6,
4,4,2,2,5,{16}8/1,7/2,{8}6/3,{16}1/7,2/6,
{8}3/5,2,2,8,8,{16}3,4,{8}2,{16}6,5,
{8}7,{16}2,6,{8}8,7,3h[4:1],{16},,,,4,5,
{8}3,{16}5,4,{8}6,{16}8/1,7/2,{8}6/3,5/4,4/5,4/5,
{16}5,4,3,2,1,5,6,7,{8}8h[4:1],,,2-5[0.4018##0.1339],
{4}5,2,{8}7,6,2,3,
5b/4b,4/5,5b/4b,4/5,5b/3b,3,3,3/7b,
3,3,3/8b,{16}7,6,{8}5,3/4b,3,3,
{16}8,7,6,5,8,7,6,5,{8}6/4b,6,6,6/4b,
{16},,2,3,4,5,6,7,{2}8h[2:1],
{8},,2/6,{16}4,5,{8}3,6xh[16:1],{16}8,7,6,5,
8,7,6,5,8,7,6,5,4,3,{32},,8x,7x,{12}6x,1x,2x,
3x,8,7,6,1,2,{8}3,7,6,5,
4,3,2,5,5h[4:1],{16}8,1,{8}2,3h[8:1],
{24},,7,6,{6}5h[12:1],{24}2,3,{12}4h[12:1],{8}5bx,5,5,3/4bx,
3,3,2/1bx,{16}7,6,{8}5,8bx,7,6,
{16}5bx,4,8,4,7,4,6,4,{8}5bxh[24:5],{32}7,8,1,2,,,,,{8}6bx,
5,4,3bx,2,1bxh[8:1],{24}8,7,6,{8}5h[8:1],{24}7,6,5,
{8}4h[8:1],{24}8,7,6,{8}1/5,1,1/8bx,1,1,1/4bx,
1,1,1/3bx,1,1,1/5bx,1,1,
1/7bx,1,1,1/8bx,1,1,1/6bx,1,
1,1/8bx,1,1,{16}1/8bx,,,2/1,,,{8}2/3,
{16},4/3,,,5/4,,,6/5,,,{8}7/6,{16},8/7,{32},,,,1/8,
,,1/8,,,{16}1/8,{32},1/8,,,1/8,,,1/8,,,{16}1/8,{32},1/8,,,{4}1-5[0.1339##0.2679]/8-4[0.1339##0.2679],
{32},,,,,,,,,,,,,,,,7bx/3bx,6bx/2bx,5bx/1bx,8bxh[32:9]/4bxh[32:9],,,,,,,,,,,,,,,{16}8x,
7,6,5,8x,7,6,5,1x,2,3,4,1x,2,3,
4,8x,7,6,5,8x,7,6,5,8x,7,6,5,4x,3,2,
{24}1,8x,7,6,5,4,{32}3x,2,1,8,7x,6,5,4,(298.667){8}2-6[0.1004##0.0502],2,7-3[0.1004##0.0502],7,
1-5[0.1004##0.0502],1,8x,{16}1x,2,{8}3,8x,8x,8x,
{16}1x,2,3,4,{8}5,{16}7x,6,{8}5,{16}2x,3,{8}4,1x,
1x,1x,{16}1x,8,{24}1x,2,3,{8}4,1x,1x,1x,
{24}1bx,2x,3x,1x/4x,8x,7x,1x/6x,2x,3x,4bx/1x,8x,7x,{8}1x/6x,1x,{16}1,2,3,4,
{48}5,,,,,1x,,,,,,,1x,,,,,,,8,,{16}7,{8}6,1x,1x,1x,
{16}1x,2,3,4,{8}5,1,1-5[0.3013##0.1004],,,1/8,
,,{4}8-4[0.3013##0.1004],{8},2/8,,,2-6[0.3013##0.1004],
,,2/7,,,7-3[0.1004##0.0502],7,
2-6[0.1004##0.0502],2,8-4[0.1004##0.0502],8,1,8,1,8,
{24}1x,2,3,4,,,8x,7,6,5,,,{8}1bxh[8:1],{24}8x,7,6,{8}5,2bxh[8:1],
{24}8x,7,6,5,,,{8}3bxh[8:1],{24}8x,7,6,{8}5,4bxh[8:1],{24}8,7,6,5,,,{12}2x,
2x,2x,7x,7x,7x,{16}1,8,{8}1,{16}2,3,4,5,
{8}6,{16}8,7,6,5,{8}4,1,7,1,7,
{32}1,2,3,4,5,6,7,8,1,2,3,4,5,6,7,8,{8}1x/2x,,,1/2,
,,{4}7/8,{8},7/8,,,3/4,
,,3/4,,,{4}6/5,
{8},6/5,,,2/1,,,3/4,
,,{4}6/5,{8},7/8,{192},,,,,,,,,,,,,,,,2,,,,,,,,,,,,,,,,,1,,,,,,,,,,,,,,,,,,,{48}2,
,,,,,,,,{24}2/1,{16},,{64},{96},{192}3,,,,,,,,,,,,,,,,,{96}4,{192},,,,,,,,,,,,,,,,,3,{16},,{64},,{24}3/4,,,,,5,
{192},,,,,,,,,{64}6,{192},,,,,,,,,,,,,,,,{48}5,{16},,{64},,{96},{192}6/5,{16},,,{192}8,,,,,,,,,,,,,,,,,{96}7,{192},,,,,,,,,,,,,,,,,8,{16},,{64},,{8}7/8,
{24},,{12}1,{48}8,,,,,1,,,,,,,,,{24}2/1,{16},,{64},{96},{192}2,,,,,,,,,,,,,,,,,{96}1,{192},,,,,,,,,,,,,,,,,2,{16},,{64},,{24}2/1,
,,,,2x/1x,{192},,,,,,,,,{64}1x/8x,{192},,,,,,,,,,,,,,,,{48}7x/8x,{4},{16},{64},,,{192}2/1,{16},,{64},,,{96},{192}2,{16},,{64},,,2/3,
{16},,{64},,,{192},3,{16},,{64},,,{192},4/3,{16},,{64},,,{96},{64}4,{16},,{64},,{192},5/4,{16},,,{96}5,
{16},,{64},,,{96},{64}6/5,,,,,,,,,,,,6,{16},,{64},,{192},6/7,{16},,,{96}7,{16},,{64},,,{96},{64}8/7,
,,,,,,,,,,,8,{16},,{64},,{192},1/8,{16},,,{96}1/8,{16},,{64},,,{96},{64}1/8,,,,,,,,,,,,1/8,{16},,{64},,{192},1/8,
{16},,,{96}8/1,{16},,{64},{96},{64}1/8,{4},,{16},,{64},{192},{96}2x/1x,
4/3,{16},,,{64},,{96},2x/1x,3/4,{16},,,{64},,{96},2x/1x,4/3,{16},,,{192},{64}2x/1x,{8}4/3,
{64},,,,,,,,,2x/1x,{32}4/3,{64},,,,,,,,,,,,,2x/1x,{32}4/3,{4},{16},,,{64},,,1b/8b,2b/7b,3b/6b,{32}5p8[0.226##0.1256]/4q1[0.226##0.1256],
E
