&title=HAPPY PARTY TRAIN
&artist=Aqours
&first=-0.02
&des=小火车
&lv_5=13+
&inote_1=
&inote_5=(170)
{1},,
{2}3x<6[2:1],E5,7x>2[2:1],E1,3x<6[2:1],E5,7x>2[2:1]b,E1,
{8}3bxqq4[2:1],,5h[8:1],,6h[8:1],,7h[8:1],,8xqq1[2:1],,1h[8:1],,2h[8:1],,3h[8:1],,
{8}4bxh[8:1]/8bxh[8:1],,3x/7x,37,2x/6x,26,1x/5x,15,8>3[8:1]/4<7[8:1],,,,{32}4x,5x,6x,7x,8x,1x,2x,3x,{4}4bx/7bx,
{4}2b>5[8:1],6,{8}7p5[4:1],4,3x,,{4}2>5[4:1],5<8[4:1],8>3[4:1],4,
{4}7-4[8:1],78,{8}1-5[8:1],2,18,,34,2,65,7,34,{16}2x,1x,{8}2x,8,
{4}7b<4[8:1],3,{8}2q4[4:1],5,6x,,{4}7<4[4:1],4>1[4:1],1<6[8:1],3x,
{16}5bx/1bx,,2-6[8:1],4,3,,{4}2b/8b-4[8:1],1b-5[8:1]/8b,1b/7bqq4[8:3],{8}4,3,2,1<6[8:1]*>4[8:1],,,,
{8}3xpp5[4:1],,,8<5[4:1],,,2,,3pp5[4:1],,,8<5[4:1],,,2,,3pp5[4:1],,,8<5[4:1],,,2,,3pp5[4:1],,,8<5[4:1],,,2,,
{8}2>5[8:3],,,5-1[4:1],,,6,,7<4[8:3],,,4-8[4:1],,,3,,2-4v1[8:3],,,1>5[4:1],,,8,,7-5v8[8:3],,,8<4[4:1],,,1,,
{8}2h[4:3],,3,3,,4,5,,6h[4:3],,7,7,,8,1,,2h[4:3],,3,4,,5,6,,7h[4:3],,6,5,,4,3qq4[2:1],,4,,5,5h[4:1],,,6pp5[2:1],,5,,4,4h[4:1],,,3h[8:1],,3h[8:1]/4h[8:1],,2h[8:1]/1h[8:1],,2x/1x,3x/4x,5x/6x,7x/8x,2x>5[8:1]/1x,,8,7-5[8:1]*-3[8:1],,7b,,
{8},2-5[8:1],,21,,7-4[8:1],8,7,,2-6[8:1],,7-3[8:1]/2,,7/1-5[8:1],,8-4[8:1]/1,,2qq5[4:1]/8,,25,6,,7,7/4-1[8:1],,4/8qq4[4:1],,83,2,,2,15,,
{8}7-4[8:1],,78,,2-5[8:1],1,2,,7-4[8:1],,78,1,2-5[8:1],3,21,,
{8}6pp5[4:1],,56,4-8[8:1],3,2,1x,,2-5[8:1],,25,6,7,{16}8,5,{8}8,3,
{8}2bpp5[4:1],,25,6,7,8,1<6[8:1]/4,,4>1[8:1]/1,,4/5pp8[4:1],,1,2,3x,,
{8}7qq4[4:1],,74,3,2,1,8>3[4:1]/5,,3<6[4:1],,6<1[4:1],,1,,
{8}5,6,7-3[8:1],,7V51[4:1]/1,,4,3,2x,,1v6[8:1],,18,7,5>2[8:1],6,5,,
{8}1,1,15,1,13,1,17,1,
{8}2b-5[8:1]/8b,,7b-3[8:1]/2b,,4bw8[8:1]/7b,,4b>5[4:2],,,,4,3,2,,
8q3[4:1],,4<7[8:1],,,4pp1[4:1],,,8,7,
6-3[8:1]*-8[8:1],,,,2-7[8:1]*-4[8:1],,,,
65,65,47,47,37,37,26,26,
3b-7[16:1]/4b-8[16:1],,C,
{24}1x/6x,2x/5x,4x/3x,
{8},,17,,
6b-2[16:1]/5b-1[16:1],,C,
{24}8x/3x,7x/4x,5x/6x,
{8},,28,,
{16}3,5,3,,6,4,6,,2,4,2,,7,5,7,,
{8}24,24,57,57,18,36,27,45,1b/8b,2b/7b,3hb[4:1]/6b,,
{32}2,1,8,7,6,5,4,3,2,1,8,7,6,5,4,3,
{8}2q6[8:1],,7p3[8:1],,3,2-6[8:1],1,8-3[8:1]*-5[8:1],,,Cf,,
4s8[8:1]/5z1[8:1],,45,,4s8[8:1]/5z1[8:1],,45,,
{16}4,5,3,6,2,7,1-5[16:1],,,,,,6hb[4:1]/3b,,,,
{32}7,8,1,2,3,4,5,6,7,8,1,2,3,4,5,6,
{8}7p3[8:1],,2q6[8:1],,6,7-3[8:1],8,1-6[8:1]*-4[8:1],,,Cf,,
35,2,{32}17,6,5,4,3,2,1,8,
{8}2-6[8:1]/7,,,8b,8bw4[8:1],,,,
{32}
1b,2,3,4h[32:5],,,,,
1b,8,7,6h[32:5],,,,,
1b,2,3,4h[32:5],,,,,
1b,8,7,6h[32:5],,,,,
{16},,3,5,
{8}2b/6,34,26,3/4h[16:1],26,34,
82,65,82,65,82,6/5h[16:1],82,65,
17,34,17,34,17,3/4h[16:1],17,34,
{32}2,3,4,5,6,7,8,1,{8}2/6,
3b-8[8:1]/5b-8[8:1],,3b/5b,,,
8^5[8:1],,1,,3^8[8:1],4,6-1[8:1],,7,,2,3-7[8:1],,3,2,,
1-5[16:1]/8-4[16:1],,,
3-8[8:1]/6-1[8:1],,3>5[4:3]/6<4[4:3],,,,,,,,,,,
4>6[4:6]*>3[4:1]*>2[4:2]*>1[4:3]*>8[4:4]*>7[4:5],,,,,,,,,,,,,,,,
35,35,35,35,26,26,26,26,
{32}2,3,4,5,6,7,8,1,2/6,5,4,3,2,1,8,7,
{4}6-1[8:1],8,2b>5[8:1],6,{8}7p5[4:1],4,3x,,{4}2>5[4:1],5<8[4:1],8>3[4:1],4,
{4}7-4[8:1],78,{8}1-5[8:1],2,18,,34,2,65,7,34,{16}2x,1x,{8}2x,8,
{4}7b<4[8:1],3,{8}2q4[4:1],5,6x,,{4}7<4[4:1],4>1[4:1],1<6[8:1],3x,
{16}5bx/1bx,,2-6[8:1],4,3,,{4}2b/8b-4[8:1],1b-5[8:1]/8b,1b/7bqq4[8:3],{8}4,3,2,1h[4:1],8,7,6,
{16}5b/1b,,7-3[8:1],5,6,,{4}7b/1b-5[8:1],8b-4[8:1]/1b,8b/2b,
{8}34,34,56,78,71,81,82,,
{16}3,4,3,4,2,5,2,5,1,6,8,7,1-5[8:1],,
{8},,,2p6b[8:27]/3-6[8:14],
