&title=云彩面包 - 片尾曲
&artist=群星
&first=0.02
&des=obs
&clock_count=4
&lv_5=12
&inote_5=(160)
{1},
{8},3h[2:1],,4,,5,6,7<2[4:3]/2>7[4:3],
{8},,,,,,,{32},,,
{6},3h[3:1]`7,6,5,5h[3:1],2,{32}1w5[4:9],
{8},,,,,,,,
{1},,
{8}4-1[2:1],,,,,,,,
{8}5-8[2:1],,,,2,,,,
{8}3-8[2:1],,,,7,,,,
{8}6-1[2:1],,,,2h[4:1],,,,
{8}3,,3h[4:1],,4,,4h[4:1],,
{8}5,,6h[4:1],,7,,8h[4:1],,
{8}1pp1[2:1],,,,,,,,
{8}8qq8[2:1]/1pp1[2:1],,,,,,,,
{8}3>8[2:1],,,,,,,,
{8}6p1[2:1],,,,3,,,,
{8}4q1[2:1],,,,5p8[2:1],,,,
{8}2h[2:1],,,,7,,3/6,,
{8}3h[2:1],,4q8[4:1],,,,,,
{8}6h[2:1],,5p1[4:1],,,,,,
{8}2q5[2:1]/7h[2:1],,,,,,,,
{8}5pp8[4:3]/4h[2:1],,,,,,,{32},,,2,
{32},,,{8},1h[4:1],,7,,8h[4:1],,
{8}2,,7h[4:1],3,,,4h[4:1],,
{8}5,,5h[4:1],,6,,6pp2[4:3],,{32}5h[4:1],
{8},,,{32},,,5h[4:1],{8},,,,
{8}6/4,,3,,2,,1>4[4:1]/5<8[4:1],,
{8},,,,5,,5q1[8:14],{16}5p1[8:13],,
{8},,,,,,,,
{8},,,,,,,,
{8}1b/8b,,1,1,1>3[4:1],,3<5[4:1],,
{8}5<1[2:1],,7>3[2:1],7,,,,,
{8}7,,8,8,8<6[4:1],,6>4[4:1],,
{8}4>8[2:1],,2<6[2:1],2,,,,,
{8}1,,2>4[4:1],2,4<6[4:1],,6<8[4:1],,
{8}8pp4[1:1],,,6,,,5,,
{8}4>8[2:1],,6,,8<8[4:4],,6,6h[8:5],
{8},,,,,,,,
{8}6/1,,2>4[4:1],,4p8[2:1],,6,,
{8}8p4[2:1],,,7h[8:5],,,,,
{8}3,,6>4[4:1],6,4>2[4:1],,2qq6[1:1],,
{8}1,,2,2h[8:5],,,,,
{8},,2>4[4:1],,4-6[4:1],,6<8[4:1],,
{8}8V24[2:1],,,,7,,6qq1[1:1],6,
{8},,,,3,,,,
{8}4qq8[4:3],,,,,,,,
{8},,7<5[4:1],,5-3[4:1],,3>1[4:1],,
{8}1V75[2:1],,,,3,,4w8[4:9],4,
{8},,,,,,,,
{8},,,,,,,,
(150)
{8},,,,,,3,,
{8}4,,5,,7,,1h[16:5],,
{16},,,,,2h[3:1]/6h[3:1],,,,,,,,,,,
{8}4qq8[1:1],,,,,,,,
{8},,,,,,,,
{8},,,,,,,,
E
