&title=Saint or Sinner
&artist=crayvxn
&first=0.04
&des=hakamori
&lv_5=13
&inote_5=(164)
,,,,B7/B6/C/2<3[1:3],,,D3,A2,,,E1,E2,,,,,,
{8}
,3,4,5,6>7[4:5],,
{4}
,,,,,
{8}
,6,5,4,3<2[4:6],,,,,,,,E4,,,E5,,,E6,,
{8}
3qq4[2:1],,6,6,,7,,
{16}
6,5,
{8}
6pp8[8:2],,3,3,,
{16}
2,1,
{8}
3,8,7,7,78,,2,2,12,3,,6,54,,3,3,21,,7h[4:1],,
{16}
5,6,4h[4:1],,,,3h[4:1],,,,1,8,
{8}
2,,34,5/6h[4:1],,
{16}
4,5,3,,34,,
{8}
2,2,21,,7,7,78,56,3bz7[8:5]/4b-8[4:1],,,,,,,,
{16}
6,5,6,,4,,3,4,3,4,3,,2,,1,8,2,8,2,,7,,5,6,4,6,3,,2,,2,1,3,4,3,,5,,6,5,6,5,6,,7,,8,1,7,1,7,,2,,4,3,5,3,6,,2,1,,3,
{8}
45,4,34,3,23,2,12,1,81,8,87,7,76,6,56,5,
{16}
4,5,3,6,2,7,1,8,2,1,2,8,
{24}
3x,4x,5x,1x,8x,7x,
{8}
2b-6[8:1],,,4q8[8:1]*p8[8:1],,,,,
{16}
2,,2-4[8:1],,2,,5,5,,,6-1[8:1],,6,,3,3,,,2-5[8:1],,2,,8,8,,,7-4[8:1],,7,,2,2,,,1q5[8:1],,2,,7,7,,,8p4[8:1],,7,,3,3,,,2>5[8:1],,1,,7,7,,,8<5[8:1],,8,1,,2,,,3qq1[8:1],,3,,7,7/B1,,,7qq5[8:1],,7,,3,3/B5,,,2<8[8:1],,2,,7,7/A1,,,6>4[8:1],,6,,3,3/A5,,,2pp4[8:1],,3,,7,7/B4,,,6pp8[8:1],,7,,3,3/B8,,,2q4[2:1],,3,,8x,8x,8x<5[8:1],,,,,,,,3b/5bx,,1,,35,,2,4,3,,8,,46,,7,5,6,,1,,35,,2,4,3,,8,,46,,7,5,6,,1,,34,,2,5,4,,8,,56,,7,4,5,,1,,82,,3,4,3,,6,4,7,3,8,2,1b,,2,,34,,2,4,3,,8,,56,,7,5,6,,1,,35,,2,4,3,,8,,46,,7,5,6,,1,,34,,1,4,2,,8,,56,,8,5,7,,3,4,2,5,1>6[4:1],6,8q6[8:1],,,,
{8}
,,3xv5[8:1]/7xv5[8:1],3xv1[8:1]/7xv1[8:1],,,,,C/B3/B7,,6v4[8:1]/2v4[8:1],6v8[8:1]/2v8[8:1],,,,,B1/B2,B5/B6,3v6[8:1]/7v4[8:1],3v1[8:1]/7v1[8:1],,,,,B7/C/B3/B6/B4,,3v8[8:1]/7v8[8:1],3v5[8:1]/7v5[8:1],,,,,Cf/B2/B3/B6/B7,,3-7[8:1],7v1[8:1]*v5[8:1],,,A5S/A1,,B7/B3/B2/B6,,4-8[8:1],8-3[8:1]*-5[8:1],,,A4/A3/A5,,B4/B3,/B6/B5,2-7[8:1],7-3[8:1]*-4[8:1],,,A4/A3/E4,,Ch[8:1],,
{4}
E3,E4,E6,E7,
{8}
3qq4[1:1],,
{8}
6,6,,5,5,,
{8}
4q5[1:1],,6,6,7,,6,,5p3[4:3],,,6,,,7,,8,8,8,
{16}
7,5,6,5,7,,3,4,2,2,
{8}
8qq5[1:1],,3,2,,2,3,4,5<8[2:1],3,3,,8q1[2:1],2,2,,1>4[8:3],,,4<7[8:3],,,7>2[8:3],,2,,,,3,3,35,6,7pp6[1:1],,5,5,,4,4,,6pp5[1:1],,4,4,3,,4,,5p3[4:3],,,2,,,1,,2,2,2,
{16}
2,4,3,4,2,,6,5,7,7,
{8}
4qq1[4:6],,7,6,,7,5,,6,6,6,,7,7,7,,8qq5[4:3]/1pp4[4:3],,,,,,,,,,,,,,,,2,4,3,5,B2,B4,B3,B5,4,6,5,7,B4,B6,B5,B7,1,7,2,8,B5,B7,E6,E7,3,5,4,6,B2,B1,E2,E1,
{8}
2h[16:1],2h[16:1],2h[16:1],2h[16:1],1h[16:1],1h[16:1],1h[16:1],1h[16:1],8h[16:1],8h[16:1],8h[16:1],8h[16:1],7h[16:1],7h[16:1],7h[16:1],7h[16:1],
{16}
5,6,5,6,4,7,4,7,3,8,2,1,4,5,2,1,
{8}
4-2-5[8:3],,,5-1[4:1]*-7[4:1],,,,,
2-4[8:1],3,2<7[8:1]/6-2[8:1],,2b/6b,,1-7-3[4:1],4,1,5-1[8:1],,5,3v8[8:1]*-6[8:1],,3,,2,6,3-1-7[4:1],7,3,,6-2[8:1],,1-5[8:1]/6-8[8:1],,6/1>4[8:1],,7x/1x,,53,26,7-5-1[4:1]/1,8,2-4[8:1]/7,,2,,8-6[8:1],4,8-4[8:1],2,8,1,2-6[8:1],5-3[8:1],2,5,1>4[8:1],,
{24}
1/5x,6x,7x,8x,,,1x<6[8:1]/5x>2[8:1],,,
{8}
,,,
{16}
1xh[16:3],,,8h[16:3],,,7h[8:1],,
{32}
B6,B5,,,B2,B3,,,E1,E8,,,E4,E5,,,
{8}
7<4[8:1],8,7-3[8:1]/2-8[8:1],,2b-5[8:1]/7b,,2,1,8-6[8:1],2,8v5[8:1],3,8x/4v1[8:1],3x,4x,,8-3[8:1],3>5[4:1],8,,4v1[8:1],3,4,6,7-4[8:1],4<2[4:1],7,3,4w8b[8:1],,4,,2-5[8:1],5-1[8:1],2,,7-3[8:1],,7/1-6[8:1],,1-4[8:1],5,1,7,8v5[8:1]*-3[8:1],71,8,,
{16}
2-4-6[16:5],,,4-6-8[16:5],,,6-8>2[4:1],,8>4[16:5],,,2>2[2:1],,,5,,
{8}
6h[8:2],,,,6-2b[8:1],,6b/2b,,1<5[8:1]/3<7[8:1],2,13,,
{16}
2h[8:1],,4,3h[8:1],,5,1b,,7h[8:1],,5,6h[8:1],,4,8b,,2-5[8:1]/1-6[8:1],,38,,12,,,,6xh[8:1],,3h[8:1],,5h[8:1],,4h[8:1],,7h[8:1],,5,6h[8:1],,4,8b,,,,45,,1-5[8:1],8,2,7,1b,,6x,,6x,,6x,,3x,5,4,5,2x,4,3,4,1x,5,4,5,2x,6,5,6,1x,4,3,4,2x,5,4,5,8x,6,5,6,1x,5,4,5,2x,4,3,4,1x,5,4,5,2x,4,3,4,1x,8,5,6,1b<1-4[4:3]*>1-6[4:3],,,,,,,,,,,,,,,,,
