&title=ソテリア
&artist=Rafutsuri feat.桜あおい
&first=0.03
&des=霊風
&lv_5=14
&inote_5=(160)
{1},
{1},
{1},
{8}7h[4:3],,,1,1<4[4:1],,,,
{4}7h[1:1],3,2,1,
{8}2h[4:3],,,8,8>5[4:1],,,,
{4}2h[1:1],6,7,8,
{8}1h[2:1],,,3,3-8[8:1],,7,,
{4}1-4[8:1]/7,6,2/8-5[8:1],3,
{8}4h[2:1],,,7,7-4[8:1],,2,2,
{16}3/5,,2,,4/6,,7,,1,8,1,8,{32}1,2,3,4,5,6,7,8,
{16}1-6[8:1],,,8,,,7,,7<4[8:1]/5,,,3,,,2,,
{16}1-5[8:1]/3,,,8,,,7,,7-4[8:1],,1-5[8:1],,7,,1,,
{16}6-2[8:1],,,4,,,3,,8-3[8:1],,,7,,,6,,
{16}4/5,6,7,8,1h[8:1]/2h[8:1],,,,3-8[8:1]/7v4[8:1],,,,3/7,,,,
{16}1/6h[4:1],,2,3,4,,5/6,,3h[4:1]/8,,7,6,5,,3/4,,
{16}5/6h[4:1],,3,2,1,,6/8,,8-4[8:1],,6v3[8:1],,8,,6,,
{16}2,,5,3,8,,1/2,,3/8,,2,5,4,,7/8,,
{16}1/6,,7,3,5,,4/3,,2pp4[8:1]/6qq5[8:1],,,,2/6,,,,
{8}3qq5[2:3],,,5,5,,4,4h[8:3],
{8},,,6,6h[4:1],,,,
{8}7pp4[2:3],,,3,3,,4,4h[8:3],
{8},,,2,2h[4:1],,,{16}6,6,
{8}4/5,5,5/6,5,3/5,5,7/5,5,
{8}2/5,3,4/7,6,1/5,2,3/8,{16}7,7,
{16}2,,5/6,,7,,3/4,,3,4,2,5,1,6,8,7,
{2}2b-6[4:1],{16}8,1,2,3,4,5,6,7,
{8}8-4[8:1]/5-2[8:1],,5<7[8:1]/8,,3h[4:5],,8,8,
{4}1>4[8:1],1q5[8:1],1v6[8:1],1,
{8}4-1[8:1]/7-3[8:1],,4v5[8:1]/7,,2h[4:1],,6,6,
{4}1p5[8:1]/7v5[8:1],1v3[8:1]/7q3[8:1],1>4[8:1]/7<4[8:1],1/7,
{16}3/6-3[8:1],,,,6,,2,,1/4,,2,4,2,,1,,
{16}1/7-2[8:1],,,,7,,3,,8/4,,3,1,3,,2,,
{8}1h[4:1]/7h[4:1],,,6-1[8:1]/8-4[8:1],6/8,,,2-5[8:1]/3-8[8:1],
{2}2/3,{16}6,7,8,1,4,3,2,1,
{8}7b-3[8:1]/8b-4[8:1],,7/8qq8[4:1],,2,2,3,3,
{4}4-8[8:1]/6-1[8:1],4V25[16:3]/6,7>2[8:1],7,
{8}5>2[8:1]/1V75[8:1],,1/5,,1-5[8:1],5-2[8:1],1,6,
{4}8bw4[8:1],8,{16}2,1,8,7,6,5,4,3,
{16}2-6[8:1]/7,,,,2,,7,,5/8,,7,5,7,,8,,
{16}8/3-7[8:1],,,,3,,6,,5/1,,6,8,6,,7,,
{8}8h[4:1]/2h[4:1],,,3/7,3h[4:1]/7h[4:1],,,4/6,
{1}4bs8[2:1]/6bz2[2:1],
{16}3/7,,,,2h[8:1],,8,8,2h[8:1],,7,7,2V48[16:3],,6,6,
{16}2,,,,5h[8:1],,8,8,5h[8:1],,1,1,5V37[16:3],,2,2,
{16}5,,,,4h[8:1],,1,1,4h[8:1],,7,7,4h[8:1],,5,5,
{16}4,5,3,3,5,4,6,6,4,5,2,2,5,4,7,,
{16}1b/6b,,,,7,8,6,4,7,8,6,5,7>5[16:3],8,5,4,
{16}7,,,,2,8,3,4,2,8,4,5,2<4[16:3],8,3,5,
{16}2,,,,8,3,6,1,8,3,6,1,7,4,5,2s6[16:9],
{1}6z2[2:1],
{2}4-1[4:1],4-7[4:1],
{2}4>1[4:1],4<7[4:1],
{4}4q1[4:1],4,4p7[4:1],4,
{4}4-8[4:1],4,4h[4:1],,
{8}2h[2:1],,,5,6,7h[4:1],,2,
{8}2h[4:1],,8h[4:1],,1,1h[8:3],,,
{8}7h[4:1],,,3,4,5-8[8:1],,3h[2:1],
{8},,,2b-5[8:1]*-6[8:1],,2b,,,
{16}8v3[8:1],,,1,8,,2,,2>5[8:1]/4,,,6,2,,7,,
{16}8p4[8:1]/6,,1,2,8,,2,,1-6[8:1],,8-4[8:1],,1,,8,,
{16}3-7[8:1],,5,5,3,,6,,1v6[8:1],,2,2,1,,3,,
{16}8/4,3/7,6/2,5/1,8h[8:1]/4h[8:1],,,,6-1[8:1]/2v5[8:1],,,,6/2,,,,
{16}8/3h[4:1],,7,6,5,,4/3,,6h[4:1]/1,,2,3,4,,6/5,,
{16}4/3h[4:1],,6,7,8,,3/1,,1-5[8:1],,3-7[8:1],,1,,3,,
{24}6h[4:1],,,,,,1b,,,7,6,5,4h[8:1],,,1b,,,7,6,5,4h[8:1],,,
{24}1b,,,7,6,5,4h[8:1],,,1b,,,7,6,5,4h[8:1],,,1b,,,,,,
{8}6qq3[2:3],,,3,3,,2,2h[8:3],
{8},,,1,1h[4:1],,,,
{8}1pp4[2:3],,,5,5,,6,6h[8:3],
{8},,,7,7h[4:1],,,{16}8,8,
{8}3-8[8:1],4,6-2[8:1],5,3-7[8:1],4,6-1[8:1],5,
{8}4-7[8:1],3,2,1,8/6,1/7,2/8,{16}3,3,
{16}7,6,5,4,2,3,4,5,{32}6,5,4,3,2,1,8,7,6-2[8:1],5,4,3,2,1,8,7,
{1}6b/5b<4[4:3],
{8}7h[1:1],,,1V35[8:1],1,,,6q3[16:3]*V84[16:3],
{2}6,{16}2,5,3,5,4,5,6,5,
{8}7b-3[8:1],,3/7,2,1-6[8:1]/8,6,1/5<8[8:1]*qq3[8:1],4,
{16}5,,,,1/4,2,3,4,5-2[8:1],6,7,8,1w5[8:1]/5,,7,,
{8}1b,,2/4qq5[4:1],5,4/7,8,1-6[8:1],6V84[16:3],
{8}1,,3-8[8:1],2,3-5[8:1]/7-5[8:1],,3-1[8:1]/7-1[8:1],,
{16}3/7,,,,7/8,,7,8,6,1,5,2,4,,3/4,,
{16}4h[8:1]/3h[8:1],,,,2/4,,1,5,2,6,3,7,4,,5/6,,
{8}5h[8:1]/6h[8:1],,7,5-2[8:1]/8-3[8:1],5/8,,,1-6[8:1]/4-7[8:1],
{8}1/4,,,,7/4,2/5,3/6,2/7,
{24}1b-5[8:1]/8b-4[8:1],2/7,3/6,4/5,,,1>4[8:1]/8<5[8:1],,,,,,{4}1s5[8:1]/8z4[8:1],1/8,
{8}2/7,,7v4[8:1]/3,4V61[16:3],7,3,2-4[8:1]*-6[8:1],,
{8}2b,,7/5pp4[4:1],4,5/2,1,8-3[8:1],3V15[16:3],
{16}8,,,,6,,7,,8,4,7,3,6,2,5,1,
{16}7bv4[8:1]/8b-5[8:1],,,,7/8,,,,2,4,3,5,4qq3[16:3],6,5,7,
{16}4,,,,6,,2/7,,6,1,7,2,8z4[16:3],3,1,4,
{8}8,,3,2/5,{16}1,2,3,4,8,1,2,3,
{4}8bpp2[8:1]/4bpp6[8:1],8bqq3[2:1]/4b,1h[4:1],,
{2}2h[4:1],4h[4:1]/5h[4:1],
{2}2h[4:1],3h[4:1]/5h[4:1],
{2}2h[4:1]/6h[4:1],4h[4:1]/3h[4:1],
{2}7z3[4:3]/1h[4:1],2h[4:1],
{4}2,
