&title=Realize
&artist=鈴木このみ/TVアニメ「Re:ゼロから始める異世界生活2nd season」前半クールOPテーマ
&first=0.58
&des=Ragna
&wholebpm=206
&demo_seek=55.8
&demo_len=26
&des_5=Ragna
&lv_5=13
&inote_5=(206){2}
1w5[14.714#112:1]*w5[14.714#112:1],,,,,,,
1b,{8}
2q6[4:1],,,7p3[4:1],,,1>8[8:5],,,,,,,,,,
6q2[4:1],,,3p7[4:1],,,5<4[8:5],,,,,,,,,,
2^7[4:1],,,6q3[4:1],,,4q5[16:10],,,,,,,,,,
46,46,,78,,12,,35,,,4bz8[4:1]/5bs1[4:1],,,,,,{1}
8-5[19:17]/1q4[8:16],,5q8[8:15],,1q4[8:16]*-4[19:17],,5h[1:1],
{8}4,5,36,,{16}1,2,3,4,5,6,7,8,{8}
15,,6,6,2,2-6[8:1],,8h[8:3],
,,5^2[8:1],,7,7-3[8:1],,1h[8:3],
,,4,4^7[8:1],2,2pp6[16:7],,8,
,,,,8-4[8:1]*-3[8:1],,8,,
2,2,24,,7,7,75,,
1p4[16:3]/8q5[16:3],,,,,3,3,7,
18,8-3[8:1]/1,,1-6[8:1]/8,,1-5[8:1]/8-4[8:1],,18,
,,36,,27,,18,,
2-4[4:1],,4q5[2:1],,5,,6,,
7-5[4:1],,5p4[2:1],,4,,3,,
2^4[4:1],,4qq5[2:1],,5,,6,,
7^5[4:1],,5pp4[2:1],,4,,3,,
1-3[4:1],,3q6[2:1],,6,,7,,
8-6[4:1],,6p3[2:1],,3,,2,,
1^3[4:1],,3qq6[2:1],,6,,7,,
8^6[4:1],,6pp3[2:1],,3,,2,,
1w5[14.714#112:1]*w5[14.714#112:1],,,,,,,,
,,,,,,,,
,,,,,,,,
,,,,1b,,,,
45,,6h[8:1]/5h[8:1],,7h[8:1]/6h[8:1],,7h[8:1]/8h[8:1],,
1h[8:1]/8h[8:1],,1h[8:1]/2h[8:1],,2h[8:1]/3h[8:1],,4h[8:1]/3h[8:1],,
45,,7h[8:1]/5h[8:1],,1h[8:1]/8h[8:1],,4h[8:1]/2h[8:1],,
45,,8h[8:1]/7h[8:1],,2h[8:1]/1h[8:1],,45,,
62,5,4,73,4,5,61,5,
4,38,4,5,2-5[8:1]/7-4[8:1],,27,,
36,2,17,6,45,36,27,18,
,,,,45,4q5[16:6]/5<4[16:6],,4b/5b,
,,,,6V48[4:1],,4,,
1V73[4:1],,7,,6h[4:1],,5,3h[4:1]/7,
,4,2-6[8:1]/6,,,,75,75,
75,75,75,75,75,5-8[8:1]*-2[8:1]/7,,5,
,,3/7-3[8:1],,,,24,24,
24,4-8[8:1]/2-4[8:1],,2-6[8:1]/4,,26,,7h[4:1],
,8,1/5h[4:1],,4,2z6[16:4]/7s3[16:4],,2b/7b,
,,,,45,4>5[16:6]/5pp4[16:6],,4b/5b,
,,,,3V16[4:1],,8,,
5V72[4:1],,1,,3h[4:1],,4,1/6h[4:1],
,5,3/8z4[4:1],,,,1V75[4:1],,
5V31[4:1],,1V75[4:1],,5V31[4:1],,1,,
7h[4:1],,8,6/1-6[8:1],,,5h[4:1],,
4,6-3[8:1]/3,,,2h[4:1],,1h[4:1],,
8^3[8:1],,58,,8^5[8:1],,83,,
8^3[8:1],,85,,8^5[8:1],,38,,
1/4h[4:1],,3,2/5h[4:1],,4,3/6h[4:1],,
5,7h[4:1]/4,,6,8v5[8:1]/5^2[8:1],,85,,
61,2,37,6,54,36,27,,
,,,,,{16}8,1,{8}7b/2b,,
4h[4:1],5h[4:1],,3h[4:1],4h[4:1],,5h[4:1],6h[4:1],
,4h[4:1],5h[4:1],,3,4,2,5,
1h[4:1],8h[4:1],,2h[4:1],1h[4:1],,8h[4:1],7h[4:1],
,1h[4:1],8h[4:1],,2,1,38,,
4h[4:1],5,5,3h[4:1],4,4,5h[4:1],6,
6,1h[4:1],8,8,2-5[8:1],7-4[8:1],2,7,
3h[4:1],,{16}4,5,6,7,{8}1,1w5[8:1],,1b,
{1},E
