&title=先天性エゴサ依存症候群
&artist=ねこみりん feat. みゆ
&first=0.14
&des=57qx55uQ
&des_5=57qx55uQ
&lv_5=14
&inote_5=(180){4},{8},,,,,,,4,
,4,{16},,6,5,6,5,6,5,
{4}7-4[8:1],{8}7,1>4[8:1],,1x/8xh[8:1],,7/5,
{4}6/4p8[8:1],{8}4,7-4[8:1],,7x/1xh[8:1],,3/5,
{4}4/6<1[8:1],{8}6,3-1[8:1],,3x/4xh[8:1],,8/6,
{4}7/1-4[8:1],{8}1,5-1[8:1]*<8[8:1],,5b,,4,
{4}5/3V15[4:1],{8}3,7v2[8:1],,7x/4xh[8:1],,3/1,
{4}2/8V62[4:1],{8}8,3-8[8:1],,3x/7xh[8:1],,6/1,
{4}5/2V48[4:1],{8}2,7<5[8:1],,7x/1xh[8:1],,4/2,
{4}3/5V72[4:1],{8}5,4w8b[8:1],,4b,{16},,,,8b/B2f/E2/E3/A2,
7,6,5,4/8,7,6,5,{4}4/8b,{16}1b/B7f/E8/A7/E7,2,3,4,
5/1,2,3,4,{4}1b/5,{16}7b,8,7,8,6,1,6,1,
{4}5b-7[8:1],2,3q1[4:1],{8}7x,6xh[4:1],
,2,2-5[8:1],5,{4}2,{8}8,7h[4:1],
,2,1,1,6qq5[4:1],6,3x,2x,
1-5[8:1],7-3[8:1],1,7,{4}2xs6[4:1],7,
8v5[8:1]*v3[8:1],A8/B8,2V48[4:1],{8}5,6h[4:1],
,1v6[8:1],2,1/3h[4:1],,7,7-1[8:1],5,
{4}7,{8}4,4-2[8:1],,8h[4:1],,1x,
{16}7,7,5,6,2,2,4,3,7b,1b,5b,3b,{4}8bh[4:1],
1,{8}6-1[8:1],4-2[8:1],6,4-6<1[4:1],,4x/1x,
,2,2>4-8[4:1],4,{4}2,{8}7,6-2-8[4:1],
,3,{4}4h[4:1],{8}7<6-4[8:1],7,3,2h[4:1],
,1,8,7,6>3[8:1],3-6[8:1],{4}6x,
2,1-4-2[4:1],{8}8,7h[4:1],,1h[4:1],
,8,7,6h[4:1],,4,4,5,
3-1[8:1],4-8[8:1],3,4,{4}5xV38[4:1],{8}7,6,
{4}5v8[8:1]*v2[8:1],5x-7[8:1]*-3[8:1],5xw1b[8:1],5b,
{16}6,4,6,4,7,3,7,3,{8}8-4[8:1],4-7[8:1],8,1,
{16}1,2,3,4,5/8,1,2,3,{8}4/8-4[8:1],{16}7,1,{8}8,3,
{16}2,5,2,5,1,6,1,6,{8}8-3[8:1],7v4[16:1],8,7,
{16}2x,6x,3x,5x,1,7,2,6,{8}4w8b[8:1],6/2,{4}4b,
{16}2/6,3,4,5,8,7,6,5,4/1-5-7[4:1],2,3,4,{4}5/1,
{8}2h[8:1],{16}8,8h[8:1],,1,{8}1,{32}7b,E7,B6,B5,1b,E2,B2,B3,8b,E8,B7,B6,2b,E3,B3,B4,
{16}7x,6x,{8}5xh[8:1],{16}3,4,3,4,2,1,2,1,4,6,{8}5h[8:1],
8h[8:1],{16}4,4,6,5,7,7,2,1,3,8,{4}4p8[4:1],
8<4[4:1],4>8[4:1],8,{8}7,Cfh[8:7],
,,,,,,,,{4}7-1[8:1],
3h[8:1],2-4[8:1],{8}8,7-5[8:1],
,2-8[8:1],,4pp7[8:3],,3,2,1,
,,3-5[8:1],3,6,7,8h[8:1],4-2[8:1]*-6[8:1],
,4,,8,{16}7/1,1/7,,8/2,{8}8/2,1b,
,,7<4[8:1],7,3,2-5[8:1],,1h[4:1],
,4,3,2,8,7,6,5,
2>5[8:1],2,1v6[8:1],1,8v3[8:1],8,7<4[8:1],7,
2,1-4[8:1],7,1-6[8:1],,1-5[8:1],,1b,
{4}7<4[8:1],3h[8:1],2V86[4:1],{8}6,5h[4:1],
,4,3v8[8:1],3,7<4[8:1],7,3,2h[4:1],
,,1,1,7,6-4[8:1]*-3[8:1],3,6x-8[8:1]*-1[8:1],
,6x-2[8:1],,6,,1/3,4/8,7h[2:1]/5h[2:1],
,,,,,6/4qq7[8:5],3,2h[8:3],
,,,,{2}1-5[8:1],
{4}6-1[8:1]/4-1[8:1],4b/6b,{8}8/7,8-3[8:1]/7-5[8:1],,8b-4[8:1]/7b-4[8:1],
,8b-2[8:1]/7b-3[8:1],,7b/8b,,5,4,3,
{4}2b/1bV74[4:1],{8}1/3,2b-4-1-5b[8:3],,2/5,6,7bh[4:3],
,,,,,D2f/A1/A2/E2/B2/B1,,5b/6b-1[8:1],
,6,{4}2b-7[8:1],2b/7b,{8}6/4,5b/3b-8[8:1],
,3,{4}6bq2[8:1],6b/5b,{8}1/3,4b/8b<5[8:1],
,8,{4}3bv8[8:1],3b/4b,{8}7/1,5b/2b-6[8:1],
,2,{4}8bw4b[8:1],8b/B8f,{8}6/2,1b/8b-5-3[4:1],
,8,{4}2b-6[8:1]*-8[8:1],2b,{8}7/5,6b/4b-8-2>3[4:1],
,4,{4}7b-4[8:1]*<4[8:1],7b,{8}1/3,4b/8b<7-5-1[4:1],
,8,{4}4b-2[8:1]*-8[8:1],4b,{8}7/1,6b/5bV31-7[4:1],
,5,{4}6bw2b[8:1],{8}6b/B6f,{16},,,,8b/4b,3/7,
2/6,1/5,8,7,6,5,{8}4/8b,{16},,1b/5b,6/2,7/3,8/4,1,2,
3,4,{8}5/1b,{16},,7b,3,7,3,8b,2,8,2,{8}Cf,
E
