&title=Ready Steady
&artist=Giga/初音ミク/Vivid BAD SQUAD「プロジェクトセカイ カラフルステージ! feat. 初音ミク」
&first=0.1
&lv_5=13
&des=幻橙
&inote_5=
(115){4}1s5[2:1],{16},,,,,,,,,,,,6,
4h[8:1],,5,,2,{8}2,7h[8:1],6h[8:1],5h[8:1],4,
{16},5h[8:1],,4,,7,{8}7,2h[8:1],3h[8:1],4h[8:1],5b,
{16}3/6,4,,7,5,6,{8}4,5/2h[8:1],6,4/7h[8:1],3,
{16}2,8,,6,4,5h[16:3],{48},,,,,,,,,,{12}1b,1b,1b,{24},,,,{8}6/3,
4,5/7s3[8:3],2,1h[16:3],,,2h[4:1],
,5,7h[8:1],4,5z1[4:1],{16}3,3,,2,,3h[16:3],
,,{8}8b,{16},,5,5,4,4h[8:1],,8,{4}2-7[4:1],
{16}7-4[16:3],,,4-1[16:3],,,{8}8,{4}8h[4:1],1b,
{8}3/6,5,4/2s6[8:3],7,8h[16:3],,,7h[4:1],
,4,2h[8:1],5,4z8[4:1],{16}6,6,,7,,6h[16:3],
,,{8}1b,{16},,4,4,5,5h[8:1],,1,7-4[8:1]*-5[8:1],,,3-1[8:1]*-8[8:1],
7,,,3,{48},,,,,,,,,,,,{12}2b/7b,2b/7b,2b/7b,2b/7b,{24},,,,{8}8/7V51[16:3],
3,7/2,4,3h[8:1],{16}7,7,3,6,,5,
{8}4/5V73[16:3],2,5/1,2,4h[8:1],{16}8,8,{4}3b,
{16}2,2,5,5,{8}6/3q4[4:1],2,3/7h[16:3],,,5h[8:1],
{16}1,1,8,8,{8}7/2,5/4,{12}3b/6h[6:1],2b,1b,8b/3h[6:1],7b,6b,
{4}5h[8:1]/4h[8:1],8h[8:1]/1h[8:1],{8}2/7-3[16:3],{16}3,3-5[8:1],,4,{8}4h[8:1],
,6,7/3,8,7/2-6[16:3],{16}6,6-4[8:1],,,{8}8,
8-4[8:1],7,6/8,5,{4}4h[8:1]/3h[8:1],{8}5/2,6,
1<5[4:1],7<3[4:1],5>1[4:1],3>5[8:3],{4}1,7h[4:1],
{8},,3h,{32}6,4,5,4,{4}6/3h,{8}2h,2h,
{12}1/5h,8,7,6,{96},,,,{32}3,5,4,5,{4}3/6h,{8}7h,7h,
8/4h,1,2,3,4/8h,5,6,7/3h,
8/4h,7/3h,6/2h,{32}3,5,4,5,{8}3/6h,7h,7h[8:1],2,
{16}4,4,5,5,6,6,7,7,{8}2h[4:1],{16}5,5-8[8:1],,6,,5,
,3,3,4,{8}4h[8:1],{16}2-6[8:1],2,{8}5h[8:1],{16}2,5,{48},,,,,,,,{12}8,
2b/7h[6:1],3b,4b,5b/2h[6:1],6b,7b,{8}1b/8b,{16},,,,3,7,
{2}5b/1bs5[4:1],{8}8,7,6/3,5/2,
1bV72[16:3]/4bV63[16:3],6b/7b,{4}4b/1b,{8},8/2,7,6,
{48}1/5,2,3,4,,,,,,,,,8/4,7,6,5,,,,,,,,,{8}1/4,2/5,3/6,4/7,
8bV27[16:3]/5bV36[16:3],3b/2b,{4}5b/8b,{8},,8z4[4:1],8h[4:1],
,,{4}7,{8}8/4,7/3,6/2,5/1,
{4}4bV26[16:3]/8bV62[16:3],4b/8b,{8},1,2,3,
{32}4/8,7,6,5,,,,,5/1,2,3,4,,,,,{8}4/6,3/7,2/8,1h[8:1],
{32}7,6,5,4,,,,,{8}7/1,1h[8:1]/7h[8:1],{32},6/2,5/3,4,,,,,{8}2/8,8h[8:1]/2h[8:1],
{32},3,4,5,6,7,8,1,{8}2/6,{16}5,4,{8}7/3,2/8,{4}1w5[8:1],
1b,{8}3/7,{16}5,4,{8}7h[8:1],1h[8:1],5h[4:1],3,
3,3/4,5/2,1/6,{4}7/8,{8}3/7V58[4:1],1,
7b/8-4[8:1],4-1[8:1],1,3,{4}2,{8}6/2V41[4:1],8,
2b/1-5[8:1],5-8[8:1],8,6,{16},,6,5,4,3,,,1s5[2:1],
1h[16:7],,,,,,,,,,,{4}1,
{16}2/6,2,,3,5,4,{8}6,7b/4,6b/4,3b/5,2b/5,
E
