&title=Hello (BPM) 2026
&artist=かめりあ
&first=0.175
&des=MWHxmjTeleVision_
&lv_5=15
&inote_5=(253.25){1},,,,
{32}8bs4[2:3]/4b,7/3,6/2,5/1z5[32:45],,,,,{4},,,
{1},2h[4:7]/8h[4:7],,
{32}5bqq5[2:3]/1b,6/2,7/3,8-5[32:45]/4,,,,,{4},,,
{1},2h[2:3]/6h[2:3],
{4},,,{16}1q8[8:3],8,2,7,
{4}1,,,{16}7,1,8,2,
{8}7,,4/5,3/6,,,{16}5q4[8:3],4,6,3,
{4}5,,,{16}2,8,1,7,
{8}2,,5/4,6/3,,,{16}8p1[8:3],1,7,2,
{4}8,,,{16}2,8,1,7,
{8}2,,5/4,6/3,,,{16}4,5,3,6,
{16}4,,,,2,1,2,,,,6,5,6,,,,3,4,3,,,,7,8,{2}7-4-2<5s1b[4:13],
{1},,,
{4},2,4-2<6-3[4:5]/3-1z5>3[4:5],,
{1},
{2},1-7<6-3>1[1:1]/2p4>1[1:1],
{1},
{8},7/8,,,7-5>3s7[4:5]/8-5>2-8<7[4:5],,,,
{1},
{2},5p1[4:1]/6p1[4:1],
{16},,,,7,8,7,,6,,5,,4,,3,,
{8}2,1,8,7,1b,,{16}6,5,6,5,
{16}6,5,6,5,6,,,,2b,,,,7,8,7,8,
{16}7,8,7,8,7,,,,3b,,,,6,5,6,5,
{16}6,5,6,5,6,,,,4b,,,,7,8,7,8,
{16}7,8,7,8,7,,,,5b,,,,2,1,2,1,
{16}2,1,2,1,2,,,,6b,,,,3,4,3,4,
{16}3,4,3,4,{4}3,2h[4:1],8h[4:1],
{4}2h[8:1],2h[8:5],6h[8:3],,
{2}1>4b[8:1],{16}8,7,6,5,1,2,3,4,
{16}8,7,6,5,1,2,3,4,1,8,7,6,4,3,2,1,
{16}7,6,5,4,3/7,2,1,8,2,3,4,5,1,8,7,6,
{16}2,3,4,5,1,8,7,6,1,2,3,4,6,7,8,1,
{16}3,4,5,6,7/3,8,1,2,8,7,6,5,1,2,3,4,
{16}8,7,6,5,1,2,3,4,1,8,7,6,4,3,2,1,
{16}7,6,5,4,3/7,2,1,8,2,3,4,5,8,7,6,5,
{16}1,2,3,4,7,6,5,4,{4}1-5[8:1],1w5[8:1],
{2}1,{16}1,2,3,4,8,7,6,5,
{16}1,2,3,4,8,7,6,5,8,1,2,3,5,6,7,8,
{16}2,3,4,5,6/2p6[8:1],,,,,,,,4,3,2,1,
{16}7,6,5,4,3/7,2,1,8,7/3,,,7/3,,,7-3[8:1]/3-8[8:1],,
{2}7/3,{24}1,2,3,4,5,6,7,8,1,2,3,4,
{24}5,6,7,8,1,2,3,,,,,,8,7,6,5,4,3,2,1,8,7,6,5,
{24}4,3,2,1,8,7,6,,,,,,1/5,2/6,3/7,4/8,5,6,7,8,1,2,3,4,
{24}5,6,7,8,1,2,{8}3,,4/8,4/8,4-1-3[4:1]/8-5-7[4:1],4/8,
{8},,,,4,4,4,4,
{16}5,,5,,5,4,5,3,6,,6,,6,,6,,
{16}3,6,3,7,3,8,3,8,2,,2,,2,,2,,
{8}7,7,7,7,{24}3,4,5,6,7,8,1/5,2/6,3/7,4/8,5/1,6/2,
{8},,4,,5,5,5,5,
{16}4,,4,,4,5,4,6,3,,3,,3,,3,,
{16}6,3,6,2,6,1,6,1,7,8,7,8,7,8,7,8,
{16}6,1,6,1,6,1,6,1,{4}6b-4[8:1],6b/2b-4[8:1],
{2}2b,{8}5,2,6,2,
{8}7,2,8,2,5,3,6,3,
{8}7,3,8,3,4,7,3,7,
{8}2,7,1,7,4,6,3,6,
{8}2,6,1,6,5,2,6,2,
{8}7,2,8w4[2:1],2,,,,,
{8},,,,4,7,3,7,
{8}2,7,1-4[8:1]*-5[8:1],7,1b,,,,
{2}Ch[4:1],3>6[1:2],
{8},,,,3h[4:1],,,5h[8:3],
{2},3,
{4}2,,8h[8:3],1h[4:1],
{16}7,,8,,1,,2,,3,4,3,4,3,4,3,4,
{16}3,4,3,4,3,4,3,4,3,4,3,4,3,4,3,4,
{16}2,5,2,5,1,6,1,6,8,7,8,7,8,7,8,7,
{16}8,7,8,7,8,7,8,7,8,7,8,7,8,7,8,7,
{16}8,7,8,7,{4}8,1/8<5[4:1],1,
{4}1,1/6V85[2:1],1/6,1,
{8}1,,1/7<3[4:3],1,1/7,,1,,
{4}1,1s5s1[4:3],,,
{16},,,,,,,,6,5,6,5,6,5,6,5,
{16}6,5,6,5,6,5,6,5,6,5,6b,5,6b,5,6,5,
{16}7,4,7,4,8,3,8,3,1,2,1,2,1,2,1,2,
{16}1,2,1,2,1,2,1,2,1b,2,1b,2,1b,2,1,2,
{16}1,2,1,2,{4}1,8/1>4[4:1],8,
{4}8,8/3V14[2:1],8/3,8,
{8}8,,8/2>6[4:3],8,8/2,,8,,
{8}8,,8,,7/4,7/4,6/3,6/3,
{8}5/2,5/2,6/3,6/3,6<1-5-3[4:5]/2h[4:1],,,2h[4:1],
{8},,2h[4:1],,,2h[4:1],,,
{8}2,,,,1pp1[4:5]/6h[4:1],,,6h[4:1],
{8},,6h[4:1],,,6h[4:1],,,
{8}6,,,,7>2-6-4[4:5]/3h[4:1],,,3h[4:1],
{8},,3h[4:1],,,3h[4:1],,,
{8}3,,,,6qq1[1:1]/2h[4:1],,,2h[4:1],
{8},,2h[4:1],,,2h[4:1],,,
{8}1>4[1:1]/8h[4:1],,,7h[4:1],,,6h[4:1],,
{8},5h[4:1],,,5<8[1:1]/4h[4:1],,,3h[4:1],
{8},,2h[4:1],,,1h[4:1],,,
{8}2h[4:1],,,8h[4:1],,,2h[4:1],,
{8},2h[8:33],,,6hb[4:15],,,,
{1},,,
{4},,3h[4:1],5h[4:1],
{16}4,5,4,5,3,6,2,7,1h[16:3],,,6h[16:3],,,2h[16:3],,
{16},5h[16:3],,,3,6,2,7,1h[4:1],,,,7h[4:1],,,,
{16}4,5,4,5,3,6,2,7,1h[16:3],,,6h[16:3],,,2h[16:3],,
{16},5h[16:3],,,3,6,2,7,1h[4:1],,,,7h[4:1],,,,
{16}4,5,4,5,3,6,2,7,1h[16:3],,,6h[16:3],,,2h[16:3],,
{16},5h[16:3],,,3,6,2,7,1h[8:3]/8h[8:3],,,,,,6h[8:3]/5h[8:3],,
{4},2h[4:1]/3h[4:1],,B6/B7/E7,
{4}B2/B3/E3,{16}8p1[8:3],1,7,2,
{4}8,,,{16}2,8,1,7,
{8}2,,5/4,6/3,,,{16}4p5[8:3],5,3,6,
{4}4,,,{16}7,1,8,2,
{8}7,,4/5,3/6,,,{16}1q8[8:3],8,2,7,
{4}1,,,{16}7,1,8,2,
{8}7,,4/5,3/6,,,{16}5,4,6,3,
{16}5,,,,7,8,7,,,,3,4,3,,,,6,5,6,,,,2,1,
{4}2v5>1b[4:9],,7,7,
{4}7,7,6,6,
{4}6,6,5,5,
{4}5,5,4,4,
{4}4,4,3/B7,3,
{4}2,2,1/B5,1,
{4}8,8,7/B3,7,
{4}6,6,5/B1,5,
{4}1b,{16}6,5,6,5,
{16}6,5,6,5,6,,,,2b,,,,7,8,7,8,
{16}7,8,7,8,7,,,,3b,,,,6,5,6,5,
{16}6,5,6,5,6,,,,4b,,,,7,8,7,8,
{16}7,8,7,8,7,,,,5b,,,,2,1,2,1,
{16}2,1,2,1,2,,,,6b,,,,3,4,3,4,
{16}3,4,3,4,{4}3,
{2}2,8,
{2}2,6,
{8}1,2,3,7,6,5,2,3,
{8}8,7,6,2,3,4,7,6,
{8}1,2,3,4,5,6,7,8,
{16}1,2,3,4,5,6,7,8,{32}1-5b[8:1],2,3,4,5,6,7,8,{4},
{8}7-4[8:1],4,7,1-5[8:1],6,1-3[8:1],8,1,
{8}6-1[8:1],1,6,4-8[8:1],7,4-2[8:1],5,4,
{8}8-6[8:1],5,8,2-6[8:1],7,2-4[8:1],1,2,
{24}8,7,6,5,4,3,2,1,8,7,6,5,4,3,2,1,8,7,6/2,,,,,,
{8}2-5[8:1],5,2,8-4[8:1],3,8-6[8:1],1,8,
{8}3-8[8:1],8,3,5-1[8:1],2,5,4,6,
{16}3,4,3,4,3,4,2,5,2-5[8:1],5,2,5,2,,,,
{16}6,1,6,1,6,1,7,8,7-4[8:1],8,7,8,7,,,,
{8}2-5[8:1],5,2,8-4[8:1],3,8-6[8:1],1,8,
{8}3-8[8:1],8,3,5-1[8:1],2,5-7[8:1],4,5,
{8}1-3[8:1],4,1,7-3[8:1],2,7,8,7,
{16}6/4b,,,1b/2,,,3b/4,,,1/6b,,,2/8b,,,,
{16}6,5,6,5,6,5,6,5,6<1[8:1],5,6,5,6,,,,
{16}3,4,3,4,3,4,3,4,3>8[8:1],4,3,4,3,,,,
{24}7,6,5,4,3,2,1,8,7,6,5,4,1,2,3,4,5,6,7,8,1,2,3,4,
{4}8h[4:1],5h[4:1],6h[4:1],2h[4:1],
{4}Ch[4:1],{24}2,3,4,5,6,7,8,1,2,3,4,5,6,7,8,1-5[8:1],,,
{8}7-4[8:1],1,7,,2-5[8:1],1/8,2,,
{24}6,,,3,2,1,,,,7,6,5,4,3,2,1,8,7,6,5,4,,,,
{8}2v5[8:1],5-1[8:1],2,,,7/8,4/5,1/8,
{16}2,6,2,6,2,6,2,6,{24}2w6[8:1],3,4,5/7,8,1,2,,,,,,
{8}4-8[8:1],8-3[8:1],4,,,7-4[8:1],6,7,
{24}3,2,1,8,7,6,5,4,3,2/6,7,8,1,2,3,4,5,6,7/2,3,4,5,6,7,
{4}8w4[8:1],,2-5[8:1]/1-6[8:1],,
{16}1,8,1,8,1,8,1,8,1,8,1,8,1,8,1,8,
{16}2,7,2,7,2,7,2,7,2,7,2,7,2,7,2,7,
{16}3,6,4,5,3,6,4,5,3,6,4,5,3,6,4,5,
{8}3,3,2,2,8,8,7,7,
{16}1,8,1,8,1,8,1,8,1,8,1,8,1,8,1,8,
{8}2/7,2/7,2>8[4:1]/7<1[4:1],2/7,,,,,
{32}1b/8b,2/7,3/6,4h[32:9]/5h[32:9],,,,,,,,,,3/6,2/7,1h[32:9]/8h[32:9],,,,,,,,,,2/7,3/6,4h[32:9]/5h[32:9],,,,,
{32},,,,,3/6,2/7,1h[32:9]/8h[32:9],,,,,,,,,,2,3,4,5,6,7,8,{4}1,
{32}8b/1b,7/2,6/3,5h[32:9]/4h[32:9],,,,,,,,,,6/3,7/2,8h[32:9]/1h[32:9],,,,,,,,,,7/2,6/3,5h[32:9]/4h[32:9],,,,,
{32},,,,,6/3,7/2,8h[32:9]/1h[32:9],,,,,,,,,,7,6,5,4,3,2,1,{4}8,
{32}1b/8b,2/7,3/6,4h[32:9]/5h[32:9],,,,,,,,,,3/6,2/7,1h[32:9]/8h[32:9],,,,,,,,,,2/7,3/6,4h[32:9]/5h[32:9],,,,,
{32},,,,,3/6,2/7,1h[32:9]/8h[32:9],,,,,,,,,,2,3,4,7,6,5,4,{4},
{32}1b/8b,2/7,3/6,4h[32:13]/5h[32:21],,,,,,,,,,,,,,3,2,1h[32:21],,,,,,6,7,8h[2:1],,,,,
{32},,,,,,,,,2,3,4,,,,,{16}7b,5,7,5,7,5,7,5,
{16}7,5,7,5,7,,,,3b,1,3,1,3,1,3,1,
{16}3,1,3,1,3,,,,7b,5,7,5,7,5,7,5,
{16}7,5,7,5,7>7[4:3],5,7,5,{2}7,
{2},8hb[4:5]/2hb[4:5],
{1},
{16}1,7,1,7,1,7,1,7,{32}1,2,3h[16:3],,,,,,8,7,6h[16:3],,,,,,
{32}2,3,4,5,6,7,8,1,2/7h[4:1],,,,,,,,1,2,3,4,5,6,7,8,1,2,3,4,5,6,7,8,
{32}1,2,3,4,5,6,7,8,1,2,3,4,5,6,7,8,{16}1,6,1,6,1,6,1,6,
{16}2,5,2,5,2,5,2,5,{32}3,2,1,8,7,6,5,4,3/6,7,8,1,2,3,4,5,
{32}6/1,2,3,4,5,6,7,8,1,2,3,4,5,6,7,8,{16}1,7,1,7,2,7,2,7,
{32}2,3,4,5,6,7,8,1,2/6,3/7,4/8,5,6,7,8,1,2/6,3/7,4/8,1,2,3,4,5,6/2`,7/3,8/4,1,2,3,4,5,
{32}6/2,7/3,8/4,5,6,7,8,1,2/6,3/7,4/8,5,6,7,8,1,{4}2/6,{32}1/8,2/7,3/6,4/5,,,,,
{32},,,,1/8,2/7,3/6,4/5,,,,,,,,,1/8,2/7,3/6,4h[32:5]/5h[32:5],,,,,,3/6,2/7,1/8,,,,,
{4},{64}D1f,1/8,,2/7,,3/6,,4h[1:3]/5h[1:3],{8},,,,,
{1},,,
{4},{32}C/A1,D2,A2,D3,A3,D4,A4,D5,A5,D6,A6,D7,A7,D8,A8,D1,A1,D2,A2,D3,A3,D4,A4,D5,A5,D6,A6,D7,A7,D8,A8,D1,A1,D2,A2,D3,A3,D4,A4,D5,A5,D6,A6,D7,A7,D8,A8,D1,A1,D2,A2,D3,A3,D4,A4,D5,A5,D6,A6,D7,A7,D8,A8,D1,A1,D2,A2,D3,A3,D4,A4,D5,A5,D6,A6,D7,A7,D8,A8,D1,A1,D2,A2,D3,A3,D4,A4,D5,A5,D6,A6,D7,A7,D8,A8,D1,A1,D2,A2,D3,A3,D4,A4,D5,A5,D6,A6,D7,A7,D8,A8,D1,A1,D2,A2,D3,A3,D4,A4,D5,A5,D6,A6,D7,A7,D8,A8,D1,A1,D2,A2,D3,A3,D4,A4,D5,A5,D6,A6,D7,A7,D8,A8,D1,A1,D2,A2,D3,A3,D4,A4,D5,A5,D6,A6,D7,A7,D8,A8,D1,A1,D2,A2,D3,A3,D4,A4,D5,A5,
