&title=DX超野生!サバイバルずんど子ちゃん
&artist=IOSYS TRAX (with.ちよこ)
&first=0.12
&des=Tom
&lv_5=14
&inote_5=(170)
{1},
{4}7bV15-3b[2:3]/3h[16:3],3h[8:1],3h[16:3],3h[8:1],
{4}2h[16:3],2h[8:1],2h[16:3],2h[8:1],
{16}1h[16:3]/5b,,,6,1h[8:1],,6,,1h[16:3],,,7,1h[8:1],,7,,
{16}E7,B6,B5,E5,,B2/B3/E3,,B8/B7,E6/B5,,C,,B4/E4/E5,,,,
{16}5/3,,,,5/4,,,,6/4,,,5/4,,,5/4,,
{16}6/3,,7/2,,8/1,,3,4,2,,6,5,7pp2[4:3],4,8,3,
{1}7h[1:1],
{12}3,5,3,7,1,7,3,5,3,7,1,7,
{16}2,,2,,4,3,,5,,5,4,,6,,2,,
{16}7,,7,,5,6,,4,,4,5,,3,,7,,
{16}1,,1,,4,2,,6,,6,4,,7,,1,,
{16}8,,8,,5,7,,3,,3,5,,2,,8,,
{16}7,,8/6,,5,4,,5/3,,6,5,,7/4,,8,,
{16}2,,1/3,,4,5,,4/6,,3,4,,2/5,,1,,
{16}6/8,,1/7,,3,4,,2/5,,6,5,,7/4,,3,,
{1}Chf[4:3],
{16}4xh[8:1],,5,3,4,2,4,3,5xh[8:1],,4,6,5,7,5,6,
{16}4xh[8:1],,5,3,4,2,5,3,4xh[8:1],,3,5,4,6,5,7,
{16}5xh[8:1],,6,4,5,3,4,2,6xh[8:1],,1,7,2,5,4,5,
{16}B3,6,5,6,4,6,B2,5,4,5,3,5,E1,4,3,5,
{16}4xh[8:1],,5,3,6,2,7,1,8xh[8:1],,3,7,2,6,1,5,
{16}8xh[8:1],,7,1,6,2,5,3,4xh[8:1],,3,5,2,6,3,5,
{16}1x,7,2,5,3x,4,8,6,2x,4,3,6,4x,7,2,8,
{16}1b,,,2b,,,3b,,5b-1[8:1]/Chf[4:1],,,,,,,,
{16}2xh[8:1],,1,3,5,4,6,5,7xh[8:1],,8,6,4,5,3,4,
{16}2xh[8:1],,1,3,5,4,5,4,6xh[8:1],,4,7,1,8,2,1,
{16}3xh[8:1],,5,2,8,1,7,8,6xh[8:1],,4,7,1,8,1,8,
{16}3,4,3,4,3,4,3,4,3,4,3,4,3,4,,,
{16}2bh[8:1],,8,8,3,7,4,6,5b-1[8:1],,6,4,5b,,3b,,
{16}7bh[8:1],,1,1,6,2,5,3,4b-8[8:1],,5b,,6b/4b,,7,7,
{16}2,8,3,7,4,6,3,5,5,1,6,2,7,3,8,4,
{12}7,5,7,3,1,3,7,5,7,3,1,3,
{1}7bV15-3b[2:3],
{8}Cfh[4:3],,,,,,,,
{16}2h[8:1],,5,3,4,2,5,3,4,2,5,3,4,2,5,3,
{16}4,2,5,3,4,2,5,3,7b,,7b,,7b,,,,
{16}7h[8:1],,4h,6h,5h,7h,4h,6h,5h,7h,4h,6h,5h,7h,4h,6h,
{16}5h,7h,4h,6h,5h,7h,4h,6h,2bh,,2bh,,2bh,,,,
{16}2h[8:1],,4,3,5,4,6,5,7h[8:1],,2,2,5,3,6h[8:1],,
{16}2,2,6,3,7,4,8,5,7b,,,,7b,,,,
{16}7h[8:1],,5h,6h,4h,5h,3h,4h,2h[8:1],,7h,7h,4h,6h,3h[8:1],,
{16}7h,7h,3h,6h,2h,5h,1h,4h,2bh,,,,2bh,,,,
{16}2h[8:1],,1,3,4,2,1,3,7b,,,,7b,,,,
{16}7h[8:1],,8h,6h,5h,7h,8h,6h,2bh,,,,2bh,,,,
{16}2h[8:1],,1,3,6,4,1,3,7b,,7b,,7b,,,,
{16}7h[8:1],,8h,6h,3h,5h,8h,6h,2bh,,2bh,,2bh,,,,
{12}2h[6:1],,,6,7,8,1,2,3,4h[6:1],,,
{12}7,8,1,2,3,4,5h[6:1],,,8b,,,
{12}7h[6:1],,,3h,2h,1h,8h,7h,6h,5h[6:1],,,
{12}2h,1h,8h,7h[24:1],6h,5h,4h[6:1],,,1bh,,,
{12}E2,E3,E4,E6,E7,E8,E3,E4,E5,E7,E8,E1,
{12}2,3,4,6,7,8,3,4,5,7,8,1,
{12}3,3,2,4,4,1,5,5,8,6,6,7,
{12}7bV15-3b[2:5],,,,,,,,,,,,
{1}B7/B6/E7f,
{4}B2/B3/E3f,,Cfh[4:1],,
{16}8h[8:1],,{24}2,3,4,{16}7,6,7-4-8[4:1],4h[16:7],,,7,,,,,,
{16}2h[8:1],,{24}7,6,5,{16}1,3,2-6-1[4:1],6h[16:7],,,2,,,,,,
{16}8h[8:1],,{24}2,3,4,{16}7,6,7>1-5[4:1],1h[16:7],,,7,,,,,,
{16}2h[8:1],,{24}7,6,5,{16}1,3,2-5>3[4:1],8,,8,2,,1,,8,,
{16}7h[8:1],,{24}1,2,3,{16}6,6,5q5<7[4:1],7,,,4h[4:1],,,,,,
{16}3h[8:1],,{24}1,8,7,{16}4,4,5p4>3[4:1],3,,,6h[4:1],,,,,,
{16}7h[8:1],,{24}1,2,3,{16}6,5,8p2>8[4:3],3,,,8/1h[4:1],,,,,,
{1}Cfh[4:3],
{16}5xh[8:1],,4,6,5,5,4,6,5xh[8:1],,6,4,5,5,6,4,
{16}5xh[8:1],,4,6,5,5,4,6,4xh[8:1],,5,3,4,4,5,3,
{16}4xh[8:1],,3,5,4,4,3,5,4xh[8:1],,5,3,4,4,5,3,
{16}7x,2,6,4,5x,3,7,5,4b/8b,,3b/7b,,2b/6b,,1b/5b,,
{16}1bh[8:1],,8,2,1,1,8,2,1b-5-2[4:1],,2,7,1b,,8b,,
{16}8bh[8:1],,1,7,8-3V52[8:3],8,1,7,8b,,6b,,7b,,8,8,
{16}1,7,2,6,3,5,4,6,5,7,4,8,3,7,2,6,
{24}1,5,1,5,1,5,1,5,1,5,1,5,1,8,7,6,5,4,3/7,8,1,2,3,4,
{16}5x/1x,,2,3,2,3,2,3,1,4,1,4,1,4,1,4,
{16}2,3,2,3,1,4,1,4,2,3,1,4,2,3,1,4,
{16}2,3,2,,2,,2,3,2,,2,,2,3,2,,
{12}7,5,6,2,4,3,2x-5[8:1]/6x-1[8:1],,,,,,
{16}4x/8x,,7h,6h,7h,6h,7h,6h,8h,5h,8h,5h,8h,5h,8h,5h,
{16}7h,6h,7h,6h,8h,5h,8h,5h,7h[32:1],6h[32:1],8h,5h,7h[32:1],6h[32:1],8h,5h,
{16}7h,6h,7h,,7h,,7h,6h,7h,,7h,,7h[32:1],6h[32:1],7h,,
{12}3b,1bh,5b,7bV15[4:1],1b,5bh,3bV51[4:1],,,,,,
{1}7bV15-3b[2:3],
