&title=クロートーと星の観測者
&artist=しーけー
&first=-0.879
&des= Colorful Skin
&des_5= Colorful Skin
&lv_5=14+?
&inote_5=(230){4},{8},,,,,,6,
5,4,3,6,5,4,3,
2-5[8:1],2,7-4[8:1],7,3>1[8:1],3,5q1[8:1],5,
4-1[8:1],4,6<8[8:1],6,5q1[8:1],5,7,6,
5,2,3,4,8,7,6,1,
2,3,6-1[8:1],6,3-8[8:1],3,7<5[8:1],7,
1q5[8:1],1,8p4[8:1],8,2>4[8:1],2,5,6,
7,3,2,1,6,7,8,4,
3,2,7<5[8:1],7,3>1[8:1],3,4-7[8:1],4,
8-3[8:1],8,6-3[8:1],6,2-7[8:1],2,{4}5-8[8:1],
4-2[8:1],7-2[8:1],1p8[2:1],1,
8<2[4:3],7,{2}8,
{8},,1bx/2bx,8bx/1bx,7bx/8bx,6bx/5bx,5bx/4bx,4bx/3bx,
{2}1h[4:1]/8h[4:1],{4}2>5[4:1],8h[4:1],
,5>2[4:1],{2}8h[4:1],
{4}1p4[4:1],8h[4:1],,3p6[4:1],
{2}8h[4:1],{4}5p1[4:1],8h[4:1],
,2q6[4:1],{2}8h[4:1],
{4}5qq3[4:1],8h[4:1],{24},7,6,5h[4:1],,,,,,,,,{4}7qq4[4:3],
3,2,1,
1pp4[4:3],5,6,7,
8V63[2:1],3,2,1V36[2:1],
6,7,8V63[2:1],2,
3-5[4:1],2,{8}1,,,2b/6b,
,,{4}3b/7b,{8},4b/8b,,,1b/5bh[2:3],
{32},,,,,,,,A6,B6,C,B2,{4}A2,{32}A8,B8,C,B4,{8}A4,
{32},,,,A6,B6,C,B2,{4}A2,{2}Cf,
{8}7,7h[16:1],4,6,3,5,2,1,
{4}1h[4:5],,,5h[2:1],
,,{2}2h[4:1]/7h[4:1],
{4},3h[2:1]/6h[8:3],,,{2}5<1[4:3],
{4}B2,1>5[4:3],
,B6,{2}5q1[4:3],
{4}B2,1<7[16:5],,,3-7[8:1],
{8}3,8v5[8:1],,8,1,6,
2,7,{4}3,{8}8/4,4/8<5[8:1],{32},,,,8/4,B5,B6,B7,
{8}B8,Cf,1/5,5/1>4[8:1],{32},,,,1/5,B4,B3,B2,{8}B1,{32}7bx/3bx,E7f/E3f,B6/B2,B5/B1,
{4}E5/E1,,,6q2[4:1],
2q6[4:1],6<1[4:1],{16}1,2,3,4,{4}5-8[8:1]*-2[8:1],
5,3/7,{16}8,7,6,5,{4}4<8[4:1],
8p4[4:1],{16}4,3,2,1,{4}8q4[4:1],4>8[4:1],
{16}8,7,6,5,4,3,2,1,{4}8b,{16}3/7,2/6,1/5,8/4,
{4}3-6[8:1]/7-2[8:1],7>5[16:11],{8},2h[8:3],,,,1h[8:1],
,3h[8:1],,,{4}3p7[4:1],
7p3[4:1],3>8[4:1],{16}8,7,6,5,{4}4-1[8:1]*-7[8:1],
4,6/2,{16}1,2,3,4,{4}5>1[4:1],
1q5[4:1],{16}5,6,7,8,{4}1p5[4:1],5<1[4:1],
{16}1,2,3,4,5,6,7,8,{4}1b,{16}2/6,3/7,4/8,1/5,
{4}6-3[8:1]/2-7[8:1],2<4[16:11],{8},7h[8:3],,,,8h[8:1],
{16},,8,7,{4}6-8[8:1]/2-5[8:1],6-3[8:1]/2-8[8:1],
2>5[8:1]/6<1[8:1],2/6p2[4:1],{16}6/2,1,8,7,{4}6-1[8:1],
6,{16}4/8,3/7,2/6,1/5,{4}8v1[8:1]/4v7[8:1],8w4[8:1],
8,6/2,5q1[4:1],{16}1V75[4:1],2,3,4,
{4}5<7[8:1],1,5,{16}3/7,2/6,1/5,8/4,
{4}3-6[8:1]/7-2[8:1],7>5[2:1],4h[8:1],3h[8:1],
{16}1,2,3,4,{4}5-2[8:1]*-2[8:1],5<1[4:1],{16}5/1V37[4:1],2,3,4,
{4}5-1[8:1],5-8[8:1],5>2[8:1],5,
7p3[4:1],3>5[8:3],{16}8h[4:1],,,,,1,2,3,
{4}4-1[8:1]*-7[8:1],4,{16}8,7/1,6/2,5/3,{4}4-2[8:1]*-8[8:1],
4-1[8:1]*-7[8:1],4-6b[8:1],4,{8}2/8,3/7,
,4/6,5b,5b,,,,1b/7b,
,2b/6b,,3b/5b,,4b,8h[4:1],{16}2,3,
{8}4h[4:1],7-5[8:1],8,7,{32}B3,B2,{16}E2,,,,,{8}1-4[16:1],
6-1[8:1],1,6,3-8[8:1],8-2[8:1],8,{16},,6,7,
{4}8,{32}E5,B4,{16}B3,,,1h[2:1],7,6,5,{32},,,,,,,,B5,
B6,{16}E7,,,8h[2:1],2,3,4,{32},,,,,,,,B4,B3,{16}E3,{8}7-4[8:1],
1-5[8:1],7,{4}1,{8}6h[8:1],3h[8:1],{24},,,7b/2b,6,5,
,,,7b/2b,3,4,,,,7b/2b,3/6,5/4,{48},,,,,,{16}8,1,{4}8h[4:1],
{32},A7/A1/D7/D2,A6/D6/A2/D3,A5/D5/A3/D4,{8}A4f,{16},,2x,3x,{4}4xh[4:1],{8}8,8h[8:1],
3,3h[8:1],7,7h[8:1],2,2h[8:1],6,6h[8:1],
{4}1-5[8:1],{8}1/6,7,{16}8-4[8:1],7,6,5,{4}4/8,
{8}5/3,6/2,,3/5,{4}7/5-1[8:1],{8}5/8,7<5[12:1],
{24},,,1/7pp4[2:1],2,3,,,,{8}4,4,3,3,2,
,1>3[8:1]/5<7[8:1],,1p5[8:1]/5p1[8:1],,5/1,{4}A1f/A5f,
,2>4[8:1],6/2,7h[4:1],
3<5[8:1],7/3,4h[4:1],8<6[8:1],
8/4,3h[4:1],7<5[8:1],7/3,
4-2[8:1]*-6[8:1],4-8[8:1],4,{8}6,1,
,8b/7b,{4}1b/5b,{8}2b/1b,8b/4b,,6b/5b,
{4}4b/8b,{8}4b/3b,5b/1b,{16},,,,6,5,{8}6,
1b,{16}5,4,{8}5,8b,{16}4,3,{8}4,1b,{16}7,8,
{8}7,4b,{16}8,1,{8}8,5b,{16}1,2,{8}1,4b,
{16}1,8,7,6,5,1,2,3,{8}B6/4>6[4:5],B5,{4}C,
{8},,,,,,,,,,2bx/8bx,
7bx/3bx,,4bx/2bx,,4bx/5bx,
,7bx/5bx,,8bx/1bx,,2bx/4bx,{16}4bx/5bx,,,5bx/7bx,
,1bx/8bx,,,7bx/2bx,,,3bx/6bx,,,,,{8}3b/5b-1b[4:5],3b,
3b,3b,3b,3b,3b,3b,3b,3b,
{48}3b/5b-8-3-6-1-4-7-2-5[1:6],B5,Cf,B1,{12}A1,{1},,,,,{4},{12},{2}6h[2:1],
{8},,6,6h[4:1],,,5,4,
3,3h[4:1],,,4,5,6,6h[4:1],
,,6,5,4,3h[4:1],,2h[4:1],
,,1,1,,7,{4}7,
{8}7,8/1,2,7,8,1,2,8-4[0.2609##0.1304],
,8<2[0.2609##0.2609],,8,{32}A5,D5,D4,A3,{8}8w4[0.2609##0.1304],,8,
,1>3[0.2609##0.1304],8,1-5[0.2609##0.1304],,1,,4>2[0.2609##0.1304],
5,4-8[0.2609##0.1304],,4,,7/1,,,,,,,{4}7-5[8:1]/2-7[8:1],
2/7,
6/1,7-2[8:1]/2-4[8:1],2/7,8/3,
{16}3/7,2/6,1/5,8/4,{4}3-6[8:1]/7-2[8:1],7>5[16:5],3h[8:1],
{16}8,1,2,3,{4}4p8[4:1],8p4[4:1],4>8[4:1],
{16}8V62[4:1],7,6,5,{4}4,{16}5,6,7,8,{4}1-4[8:1]*-3[8:1],
1-5[8:1],1-6[8:1]*-7[8:1],1>5[4:1],{16}5/1,6,7,8,
{4}1>5[4:1],{16}5/1,6,7,8,{4}1p5[4:1],5p1[4:1],
{16}1V73[4:1],2,3,4,{4}5-2[8:1],5-7[8:1],5-3[8:1],
5q1[4:1],1q5[4:1],5<1[4:1],1>5[4:1],
5<1[4:1],{16}1V75[4:1],2,3,4,{4}5<7[16:3],3,
1,2-5[8:1],{8}2/6,7-4[8:1],,7/3,
{4}2-5[8:1],{8}2/6,7-4[8:1],,7/3,{4}2-5[8:1]*-7[8:1],
2,8/4,{8}6b/2b,8b/4b,,,,,7b/3b,
1bh[8:3]/5bh[8:3],{16},,,,,,,,1,
8,1,8,1,8,1,8,1,8,1,8,1,8,1,8,
1,8,1,8,{4}2/7,{8}7b,6,5<8[8:1],4,
3,2>5[8:1],1,8,7,6<8[8:1],4,6,
5>3[8:1],1,5,8<6[8:1],2,8,1>3[8:1],5,
1,6,5,4,3,2-4[8:1],4-2[8:1],2-7[8:1],
7-2[8:1],6,5,4-8[8:1],3,2,1p5[8:1],2,
3,4>1[8:1],4,5,6,7,8<5[8:1],1,
2,3,4,5,2b,3,4>1[8:1],5,
6,7<4[8:1],8,1,2,3>1[8:1],5,3,
4<6[8:1],8,4,1>3[8:1],7,1,8<6[8:1],4,
8,3,4,5,6,7-5[8:1],5-7[8:1],7-2[8:1],
2-7[8:1],3,4,5-1[8:1],6,7,8q4[8:1],7,
6,5<8[8:1],5,4,3,2,1>4[8:1],8,
7,6,5,4,{2}7x-2-5-8-3-6[1:2]`2x-7-4-1-6-3b[1:2],
E
