&title=燦々
&artist=Afterglow
&first=0.02
&des=#def Y.O.L.O.
&lv_5=14
&inote_1=
&inote_5=(196)
{1},,{16}1xq5[8:1],,,,7x,,,,8xp4[8:1],,,,2x-5[8:1],,,2x,,,{2}4b>5[8:11],,,{8}B3,E2/E3/B2,,
6,6,4,5,5,3,6,6,3,5,5,4,6,1/7x,2/7x,6,3,3,5,4,4,6,4,4,5,3,3,6,1v4[8:1],8x,1/7x,
,6,6,1>4[4:1],6,1x,8,7,6,5x<7[8:1],4,3,2x>4[8:1],1,8,7x>7[4:3],6,{1}5hx[4:3],
{8}1/6,2,3/5,{16}4,3
,4-8[8:1],,5hbx[4:1],,4b,,,,
{8}1h[4:1]/7h[4:1],,,2,3/4,5,4/5-8[8:1],6,5x/7-4[8:1],,7x/1qq4[4:1],,E8/B8/B7,,
,,8h[4:1]/2h[4:1],,,7,6/4,3,5/3,6,2qq5[4:1],,B6,B7,B8,8x,8x,,
1h[4:1]/7h[4:1],,,2,2/8,2,2>5[8:1]/5-8[8:1],2,2/5x-1[8:1],,7v4[8:1]/5x,,7/8x,,1>4[8:1],,B2/B3,,8<5[8:1],,B7/B6,,3,2-5[8:1]/7-4[8:1],,2/7,,4x/8x,2hx[4:1]/6x,{16}E7,E8,E1,,,,
{8}3h[4:1],,1-5[8:1],2,7-4[8:1],6,3-8[8:1],2,6v1[8:1],,4qq8b[4:1],,E6/B6/B5,,,,
6h[4:1],,8-4[8:1],7,1-5[8:1],2,6-8[8:1],7,4qq1[4:1],,B8,B7,B6,5bx,5bx,,
3h[4:1],,1-5[8:1],2,7xv4[8:1],7,2x>5[8:1],2,2x<7[8:1],,2x-6[8:1],,2x,,7-5[8:1]/8-4[8:1],,7b/8,,7-3[8:1]/8-2[8:1],,7/8b,,5,6,
7/8,1,7/8,{16}6,5,{8}6,2,8,4,
{8}5hb[64:1],,5,,5,,5,B1/B8/E1/C,5,,5,7h[32:1],5,3h[32:1],6,,4h[64:1],,4,,4,,4,C/B8/B1/E1,4,,4,{16}1,8,7/3,,4,,2/6,,5,,{4}1q4[2:1],1,1,1,8p5[2:1],8,8,8,
1h[2:1],{16}2,,2,,3,4,5,6,7,8,1-5[8:1]/4b-1[8:1],,,,1b/4pp8[4:1],,,,{4}4bx,,
{8}1,2-4<5[8:1],,,1,8-6>5[8:1],,,3,4q8[8:1],,,6,5p1[8:1],,,2,3q8[4:1],,8q5[4:1],,5q2[4:1],,2qq5b[8:3]*q5[8:3],,,,,,4x/6x,3x/7x,2-6[8:1]/8x,,2/1,,{8}5/7,5/7,4/6,4/6,3/5,3/5,2h[4:1]/4,,{16}1,3,1,3,8,4,8,4,7,5,6,4,
{4}5<8[8:1],5>2[8:1],5-8[8:1],5-2[8:1],5-1[8:1],5w1[8:1]b,Cf,,
{32}1bp5[8:1],E2,B2,B3,E4,,,,{8}1q3[16:5],,1,,,,2/4,5,6/3,4,5v8[8:1]/7-5[8:1],,,,
4-8[8:1],,4/1,2,4x-7[8:1]/1x>2-4[8:1],,4x/1xp4[8:1],,1q5[8:1],,1p6[16:5],,1,,,,
{32}8bp4[8:1],E1,B1,B2,E3,,,,{8}8q2[16:5],,8,,,,6v8<5[4:1],7,3qq4[4:1],4,,,,,
5hx[64:1],6,5/7hx[64:1],8,5hx[64:1],4,3hx[64:1]/8<5[8:1],2,8x,
{24}1,2,3,{8}4x-8[8:1],4,7x-4[8:1],7,1>4[8:1],,
1b<6[8:1],,1qq5[16:5],,1,,,,7>2[8:1],6,2<7[8:1],3,4-1[8:1],,4,,
7-5>4[8:1],,7/8,1,2-6[8:1],,5-1[8:1],,8x-5[8:1],8x,1x-5[8:1],1x,2x-5[8:1],,8<5[8:1],,
8b>3[8:1],,8pp4[16:5],,8,,,,3/5,4,5/6-8-5b[4:1]*qq5[4:1],7,6,,,,
3-1<8[8:1],,3/4,5,6h[4:1],1x,1x,,
5hx[8:3],,{32}2,3,4,,6,7,8,1,2,3,4,5,6,7,8,1,{8}2b/Cf,,
5h[4:1],,4h[8:1],6,8-4[8:1],,8/1,,2h[4:1],,3h[8:1],1,8-3[8:1]/4-7[8:1],,,,
2hx[8:1],1h[8:1],2h[8:1],4h[8:1],1-5[8:1],,1/8,,7hx[8:1],8h[8:1],7p4[4:1],5h[8:1],7,,,,
2h[4:1],,1,3,4-8[8:1],,4/5b,,7h[4:1],,8,6,5-1[8:1],,5/4b>1b[16:3],,4p8[16:3],,4v7b[16:3],,4<6[16:3],,4,,
8>3[8:1],{24}7x,6x,5x,{8}4xw8[16:3]/8,,4bx,,,,
1h[8:1],5h[8:1],2h[8:1],6h[8:1],3h[8:1],7h[8:1],4h[16:1],5h[16:1],
{10}1,8,1,7,{12}1,6,2,5,2,6,{10}2,{16}7x,8x,6x,1x,5x,2x,4x,3x,{32}E5,B5,B6,E7,8,,,,E5,B4,B3,E3,1,,,,{8}4x-8[8:1],8V24-6-8[8:3],,,,,,,
{8}2h[8:1],1h[8:1],{12}4x,3,2,5x,4,3,6x,5,4,8x,1,2,7x,8,1,6x,7,8,1hx[8:1]/5h[8:1],,,
7b,8,6,4b,5,3,1b,2,8,4b,7,5,{4}6hbx[2:1],{32}2,3,4,5,,7,8,1,2hx[32:7],5,4,3,,1,8,7,{8}6b/Cf,,
B4/E4/B3/5,,E1/B1/E2/6,6,,5,B2/E3/E2/6,,B4/E4/B3/5,,E1/B1/E2/6,6,,5,B2/E3/E2/6,,B4/E4/B3/5,,E1/B1/E2/6,6,,5,B2/E3/E2/6,,B4/E4/B3/5,,E1/B1/E2/6,6,,2,3/4,5,B5/E6/B6/4,,E1/B8/E8/3,3,,4,B7/E7/E8/3,,B5/E6/B6/4,,E1/B8/E8/3,3,,4,B7/E7/E8/3,,B5/E6/B6/4,,E1/B8/E8/3,3,,{16}1,,{4}8-2^3[8:1]/4-6^7[8:1],4-1[8:1]/8-5[8:1],4/8,Cf/B2/B3/E3/B6/E7/B7,,
{24}8bxp4[8:1]/4xp8[8:1],1/5,2/6
,{8},8bxpp4b[4:1],,,,7-4[8:1],6,1-5[8:1]/7,2,1/8p5[4:1],7,8,{16},,,,,,
{8}5x^7[8:1],,5/3,2,5v8[8:1]/1-4[8:1],,1x/5x,,3/7,{16}6,4,6,,3,,2-4[8:1]/5-1[8:1],,,,2x/5x,,,,
{24}1bxq5[8:1]/5xq1[8:1],8/4,7/3,,,,{8}1bxqq5b[4:1],,,,2-5[8:1],3,6-1[8:1]/2,7,6/4qq8[4:1],3,4,{16},,,,,,
{8}8x^3[8:1],7x,6,5,4x^1[8:1],,5,6,7b,{32}1x,2,3,4,6b,,,,1x,2,3,4,{8}5bv8[8:1]
,6,5/7b,,
{8}5hx[64:1]/1b-3[8:1],,1-7[8:1],6h[16:1],1-3[8:1],5h[16:1],1,{24},7,8,{8}5hx[64:1]/1b-7[8:1],,1-3[8:1],4h[16:1],1-7[8:1],5h[16:1],1,{24},2,1,{8}4hx[64:1]/8b-2[8:1],,8-6[8:1],5h[16:1],8-2[8:1],4h[16:1],8,{24},6,7,{16}4hx[64:1]/8hx[16:3],,,,{16}2,,1,5,3,6,4,5,8h[32:1],,,,
{8}4hx[64:1]/1b^3b[8:1],,1-6b[8:1],5h[16:1],1-3b[8:1],4h[16:1],1,{24},6,7,{8}8b-3b[8:1],,8^6b[8:1],5h[16:1],8v5b[8:1]/4-1[8:1],3,4x/8x,,
2hbx[8:1]/7h[8:1],,1/5,1/5,2/6,2/6,3/7,3/7,8hbx[16:3]/4,,{16}2,5,4,7,1-5[8:1]*-5[8:1],6,3,8,1b,
