&title=Zoltraak
&artist=Evan Call/ アニメ「葬送のフリーレン」戦闘BGM
&first=3.27
&lv_1=1
&lv_5=13
&des_1=音
&des_5=GANTZ
&wholebpm=145
&demo_seek=51.62
&demo_len=25.7
&inote_1=(145)
{4}1,8,1,8,1,8,1,8,1,8,1,8,1,8,1,8,1,8,1,8,1,8,1,8,1,8,1,8,1,8,1,8,
1,8,1,8,1,8,1,8,1,8,1,8,1,8,1,8,1,8,1,8,1,8,1,8,1,8,1,8,1,8,1,8,E
&inote_5=(145)
{16}
1h[8:1]/2h[8:1],,,,7h[8:1]/8h[8:1],,,,1h[8:1]/2h[8:1],,,,7h[8:1]/8h[8:1],,,,
1h[8:1]/3h[8:1],,,,6h[8:1]/8h[8:1],,,,1h[8:1]/3h[8:1],,,,6h[8:1]/8h[8:1],,,,
1h[8:1]/2h[8:1],,,,7b<8[4:5]/8b>7[4:5],,,,,,,,,,,,
,,,,,,,,,,,,,,,,
,,,,8,,1,,82,,2,1,2,,12,,
38,,47,,56,,6,5,6,,45,,3,4,3,,
25,,,,
2-4[8:1],,4,,2,,7-5[8:1],,5,,7,,
2,,27,,1-6[8:1],,6,,1,,8-3[8:1],,3,,8,,
,,,,1-4[8:1],,6,,1,,8-5[8:1],,3,,8,,
2,,1-5[8:1],,8-4[8:1],,1-3[8:1],,8-6[8:1],,1-5[8:1],,8-4[8:1],,1,,
8b,,,,1,2,3,4,5,,7,,57,,6,,
64,,25,,1,2,3,4,5,,7,,7/5-2[8:1],,7,,
5,,,,8,7,6,5,4,,2,,24,,3,,
35,,47,,8,7,6,5,4,,2,,2/4-7[8:1],,2,,
4,,,,1,2,3,4,5,,7,,75,,6,,
64,,74,,8,7,6,5,4,,2,,24,,3,,
35,,4,,46,,5,,4v1[8:1]/6v1[8:1],,,,4^1[8:1]/6^1[8:1],,,,
4v1[8:1]/6v1[8:1],,,,4^1[8:1]/6^1[8:1],,,,4-8[8:1]/6-2[8:1],,,,4v1[8:1]/6v1[8:1],,,,
4>6[2:1]/6<4[2:1],,,,46,,,,,,,,,,,,
5,,46,,3-5[8:1]/7-1[8:1],,,,73,,,,5-3[8:1]/1-7[8:1],,,,
15,,,,3b>6[8:3]/7b>4[8:3],,,,,,,,,,,,
4,,5,,4h[4:1]/6h[4:1],,,,,,,,6,,7,,
8,,12,,3h[4:7]/8-4[8:1],,,,,,,,4-7[8:1],,,,
,,,,7-1[8:1],,,,,,,,1-5[8:1],,,,
1b,,,,2-6[8:1],,2,,1-5[8:1],,1,,8-4[8:1],,8,,
7-3[8:1],,7,,6-2[8:1],,6,,5-1[8:1],,5,,4,,,,
37,,,,7-3[8:1],,7,,8-4[8:1],,8,,1-5[8:1],,1,,
2-6[8:1],,2,,3-7[8:1],,3,,4-8[8:1],,4,,5,,,,
26,,,,1,,17,,1,,18,,1,2,3,4,
5,6,7,8,15,,5,,1,,26,37,48,,48,,
2-8[8:1]/6-4[8:1],,26,,2^4[8:1]/6^8[8:1],,,,2^8[8:1]/6^4[8:1],,,,2v4[8:1]/6v8[8:1],,,,
26,,,,8,,7,,6,,3,5,3,,26,,
1p5[8:1]/7^5[8:1],,8,,1^3[8:1]/7q3[8:1],,,,1p5[8:1]/7^5[8:1],,,,17,,,,
37,,,,2-5[8:1],,8,,28,,8,7,6,,26,,
1v4[8:1]/5v8[8:1],,15,,1-3[8:1]/5-7[8:1],,,,1v4[8:1]/5v8[8:1],,,,1^4[8:1]/5^8[8:1],,,,
15,,,,8-4[8:1],,3,,83,,3,2,1,,5,,
62,,73,,8b<4[4:1]/4b>8[4:1],,,,,,,,,,,,
,,,,1,,2,,37,,2,6,2,,26,,
2-5[8:1],,6-8[8:1],,2-4[8:1],,6-1[8:1],,2-5[8:1],,6-8[8:1],,2-4[8:1],,6,,
2,,,,8,,7,,62,,1,5,1,,15,,
1^3[8:1],,5v8[8:1],,1v4[8:1],,5^7[8:1],,1^3[8:1],,5,,1,,,,
37,,,,3,,7,,48,,7,3,7,,37,,
7-4[8:1],,3-1[8:1],,7-5[8:1],,3-8[8:1],,7-4[8:1],,3-1[8:1],,7-5[8:1],,3,,
7,,,,1,,2,,37,,37,26,15,,37,,
8-4[8:1],,4,,8b>7[2:1],,,,,,,,,,,,
,,,,16,2,3,4,5,,1,,8,,7,,
6,,5/1^4[8:1],,,,1,,6,,7,,8v5[8:1]/4v1[8:1],,,,
84,,,,1/5h[8:1],2,3,,1/5h[8:1],2,3,,15,2,3,,
7,,73,,7,5,7,,3,5,3,,7,5,7,,
46,,38,,8,7,6,5,4,,8,,1,,2,,
3,,4/8^5[8:1],,,,8,,3,,2,,1-4[8:1]/5-8[8:1],,26,,
15,,,,48,,4,8,3,7,2,6,1,,7,,
2,,6,,25,,34,,47,,56,,4b-1[8:1]/5b-8[8:1],,,,
45,,,,2-4[8:1]/7,,7,,7,,7,,4-8[8:1]/7,,7,,
7,,7,,7/8-2[8:1],,7,,7,,7,,2-4[8:1]/7,,7,,
7,,8,,1,8,7,,1,2,3,,1,8,7,,
1,,15,,1,5,2,6,3,,47,,5-8[8:1]/6-2[8:1],,47,,
56,,,,2/7-5[8:1],,2,,2,,2,,2/5-1[8:1],,2,,
2,,2,,2/1-7[8:1],,2,,2,,2,,2/7-5[8:1],,2,,
2,,2,,5,2,5,2,6,3,6,3,7,4,7,4,
8,5,8,5,8-4[8:1],,,,8^3[8:1]*^5[8:1],,,,8-4[8:1],,,,
8b,,,,3,4,3,4,3,,6,5,6,5,6,,
47,,38,,1b<3[8:3]/2b>8[8:3],,,,,,,,,,,,
,,,,1-5[8:1]/2,,,,2,,,3h[16:1],,,45,,
36,,27,,1-5[8:1]/8,,,,7,,,6h[16:1],,,64,,
28,,,,1^6[8:1]/2,,,,2,,,3h[16:1],,,27,,
1-3[8:1],,8-4[8:1],,1-5[8:1],,8-6[8:1],,1-3[8:1],,8,,1,,,,
,,,,7/8-4[8:1],,,,7,,,6h[16:1],,,45,,
36,,27,,1/8-4[8:1],,,,2,,,3h[16:1],,,35,,
17,,,,8^3[8:1]/7,,,,7,,,6h[16:1],,,27,,
1<1[2:1],,8,,1,,,,,,,,,,,,
,,,,15,,26,,37,,3,7,3,,37,,
26,,26,,2-8[2320#1:2]*-8[2320#1:2],,6-4[2320#1:2]*-4[2320#1:2],,8-4[2320#1:2]*-4[2320#1:2],,5-1[2320#1:2]*-1[2320#1:2],,4-2[2320#1:2]*-2[2320#1:2],,8-6[2320#1:2]*-6[2320#1:2],,
1-5[2320#1:2]*-5[2320#1:2],,,,56,,47,,38,,2,7,2,,27,,
36,,45,,4-1[2320#1:2]*-1[2320#1:2],,5-8[2320#1:2]*-8[2320#1:2],,4-1[2320#1:2]*-1[2320#1:2],,5-8[2320#1:2]*-8[2320#1:2],,4-1[2320#1:2]*-1[2320#1:2],,,,
,,,,18,,2,,36,,4,5,4,,45,,
37,,37,,7-1[2320#1:2]*-1[2320#1:2],,3-5[2320#1:2]*-5[2320#1:2],,1-5[2320#1:2]*-5[2320#1:2],,4-8[2320#1:2]*-8[2320#1:2],,5-7[2320#1:2]*-7[2320#1:2],,1-3[2320#1:2]*-3[2320#1:2],,
8-4[2320#1:2]*-4[2320#1:2],,,,25,,34,,15,,1,5,1,,1-3[2320#1:2]*-3[2320#1:2],,
5-1[2320#1:2]*-1[2320#1:2],,4-8[2320#1:2]*-8[2320#1:2],,5>7[2320#1:6]*>7[2320#1:6],,,,,,,,,,7-3[2320#1:2]*-3[2320#1:2],,
2-6[2320#1:2]*-6[2320#1:2],,8-4[2320#1:2]*-4[2320#1:2],,1-5[2320#1:2]*-5[2320#1:2],,,,,,,,,,,,
,,,,,,,,,,,,,,,,E
