&title=凍みる、花
&artist=klkkl/兎角菫/作田恒星/ナースロボ_タイプT
&first=-0.01
&des=dbna
&lv_5=13+
&inote_5=(132){4},,,,{32}D2,
A2,D3,A3,D4,A4,D5,A5,D6,A6,D7,A7,D8,A8,D1,A1,{16}D2,D3,D4,D5,{8}D6,D8,
D2,D4,{4}D6,D6,D6,
D6,{8}D6,D2,{2}Cfh[4:3],
{8}3,4,{4}5-1[2:1],,,{2}4qq3[2:1],
{16}7,,,6,,,{8}5,
{4}5pp5[2:1],{8},,,,4,3,
2pp4[2:1],,,1,,,{4}6,
{8}6qq4[2:1],7,{4}8,,,{2}1qq8[2:1],
{16}5,,,4,,,{8}3,
{1}2pp2[2:1],
{2}6v8[8:3],{4}2-6[8:1],2,
{12}5b/4b,{24}D2,D3,D4,D5,{12}D6,{24}B7,C,,A4,{2}2-6[8:1],
{12}7/5,{24}D5,D4,D3,D2,{12}D1,{24}B7,B6,,E5,{2}2>5[8:1],
{12}7h[24:1]/1h[12:1],{24}A8,E8,E7,E6,{12}D5,{24}B1,B2,,D4,{2}5-7>8[8:1],
{12}2/4,{24}A5,A6,A7,A8,{12}A1,{24}B2,C,,A6,{4}8p4[8:1],8/2,
{12}3b/6,{24}D4,D5,D6,D7,{12}D8,{24}D2,D3,,D5,{8}6h[8:3],3x,{12}5x,8x,,2/5,
{24}D5,D4,D3,D2,{12}D1,{24}D7,D6,,D4,{2}1s5[6:1],
{12}7/1,{24}D2,D3,D4,D5,{12}D6,{24}D8,D1,,D3,{2}6v1[6:1]*p2[6:1],
{12}8/4h[8:3],{24}D8,D7,D6,D5,{12}D4,{24}D2,D1,,D7,{4}2bv5[8:1]*-4-6[6:1],2b,
{12}8b/1,{24}D2,D3,D4,D5,{12}D6,{24}E1,C,,D5,{2}2v3-5[6:1],
{32}1/6b,2,3,4,5,6,7,8,1,2,3,4,5,6,7,8,{4}1/4<7[8:1],4/3b,
{8}7/2q6[8:1],1,6>3[8:1],{16}1,8,{4}7,{16}5,3,{8}4,
{32}6/1,5,4,3,2,1,8,7,6,5,4,3,2,1,8,7,{4}6/3q7[8:1],1b,
{12}8/6,{24}2,4,,4,{12}2,{24}3,5,,4,{4}8-4[8:1],A8,
{12}1/3,{24}8,5,,5,{12}7,{24}7,4,,4,{16}8v5[8:1],E4,E3,E2,{48},,,,,,,,,,,,{12}7/4,
{24}3,5,,6,{12}4,{24}3,5,,4,{2}2>6[8:1],
{4}8-6[8:1]*-2[8:1],8<2pp4[3:1],{2}1h[2:1],
{6}7b-3[12:1],7/5,{24},,,,,,,,,,,,,,,,{8}1b/7,
{16}2,5,3<6[8:1],4,{8}2,3/1,8,8,{16}7,5,
{8}6,5/4h[4:1],B7,6h[4:1],B2,3h[4:1],{16}8,7,6,5pp2[8:3],
,,{8}3/5,{4}1h[8:1],1h[8:1],{12}4,{24}1,3,,2,
{8}8b,7/5,{16}6>4[8:1],4,,,{8}4/6,{16}3,2,,,{8}6/4,
{16}5>3[16:1],3,,5/3,,,2,1,{4}8bpp5[8:3],3h[8:1],
{8}4>1[8:1],4,4,6,6,6,{24},,5,4,,,{4}5/7>5[8:3],
7/5,E3,E7,
{24}1x/4b,2x,3x,4x,5x,6x,5/7xqq2[8:3],8x,1x,2x,3x,4x,{4}5x/7,1,
{24}2x/5,3x,4x,5x,6x,7x,6/8xqq3[8:3],1x,2x,3x,4x,5x,{4}6x/8,2,
{24}3x/6,4x,5x,6x,7x,8x,7/1xqq4[8:3],2x,3x,4x,5x,6x,{8}7x/1,E6,{16},B4,,,{4}4/2V46[8:1],
{8}6,8,{4}4w8[8:1],4,
{8}6/5,{16}2,4,2,4,{8}3>8-4[4:1],{2}4/5,
{16}7/5h[16:3],,,4h[16:3],,,{8}2h[8:1],{4}3-7<4[8:3],3/2,
1bh[2:1],{8}2,4,{16}6,,,8/7h[16:3],,,{8}6h[8:1],
5,{16}3,4,3,4,{8}2,{2}8b<5[8:1]*>3[8:1],
{4}2/5,{16}4,4,{8}6-4[8:1],3,2,{4}2h[4:1],
{16}8,,,6,,3,{8}4-6[8:1],2,3,{4}3h[4:1],
{8}5,{16}6,4,,4,{8}6-8[8:1],5,4,{4}4h[4:1],
1,{8}7,8-6[8:1],5,4,{4}3h[4:1],
4,{16}5,5,{8}3-5[8:1],6,7,{4}7h[4:1],
{16}1,,,3,,6,{8}5-3[8:1],7,6,{4}6h[4:1],
{8}4,{16}3,5,,5,{8}3>5[8:3],{4}4,6,
{2}8h[2:1],{24}2,3,4,8/5,7,6,1,2,3,4/5b,,,{8}2b-4[8:1],
1,2/5-1[8:1],6,4/5,3,2/8,1-5[8:1],
8/7b,1/6-8[8:1],,6/4,{4}1h[4:1],{16}4,2,4,2,
{8}3b<6[8:1],2v5[8:1],3,2,7,8>4[16:3],,6,
{32}6b,7,8,1,2,3,4,5,6,7,8,1,2,3,4,5,{4}6/2qq8[8:1],4,
{8}7-5[8:1],8,7/4-8[8:1],3,5/4,6,7b/1,8-4[8:1],
1/2,8b/3-1[8:1],,3/5b,8,{24}5,6,5,{12}6,{24}4,3,4,3,
{8}6b>3[8:1],7v4[8:1],6,7,{4}2-6[8:1],{8}2/1,1,
8b/4,5/8,6/8<3[4:1],3/8,{4}E3,E7,
1/2b>5[8:1],2/7>2[8:1],7/4<7[8:1],{8}1/4,2<7[8:1],
3/5,7pp4[8:3],,5h[8:3],,,,,3/4,
{24}2,3,4,5,6,7,8,,,{2}2/4bq8[8:1],
{8}3/5,{24}7,6,5,4,3,2,1,,,{4}6/4bp8[8:1],7v4[8:1],
8/7<4[8:1],7/2<7[8:1],2/5>2[8:1],{8}8/5,7>2[8:1],
6/4,2q3[8:3],,4h[8:3],,,,,6/5,
{24}7,6,5,4,3,2,1,,,{2}7/5b-1[8:1],
{4}8-4[8:1]/2-6b[8:1],2/8,{8}3/7,4/6,{16}5,5,5,5,
{4}5bp1[8:1],{16}D1,B7,{8}A6,{4}4<7[8:1],{16}D1,B2,{8}A3,
{4}5p1[8:1],{16}A8,A7,{8}A6,{4}8bw4[8:1],8b,
{8}5/2-5[8:1],{16}3,4,{8}2,{16}6,7,8h[8:1]/E3,,,5h[8:1]/B1,,,{8}3h[8:1]/E7,
{4}4-7[8:1],{16}4/8h[8:1],,,3h[8:1]/1h[8:1],,,{8}2/4h[8:1],{4}C,
{12}1/5h[8:3],{48}D2,A2,D3,A3,D4,A4,{24}D5,{48}D6,A6,,A7,D8,,{24}D1,D2,D3,{2}4bw8[8:1],
{24}5/8,4,3,2,1,8,4/7,5,6,7,8,1,{8}2h[4:1],4b,7h[4:1],5b,
{12}3,{24}6x,5x,4x,3x,{12}2x,{24}8x,7x,,5x,{16}3>8[8:1],,,5h[8:1],,,{8}5,
6/1>6[4:1],{16}1,E3,,E7,,,{8}8bqq7[4:1],6b,4b,2b,
{12}8,{24}D2,D3,D4,D5,{16}D6,A7,{8}D1,{4}2b,{8}2b,{16}8,3,
{4}2/1b-4[8:1],8/1b-5[8:1],2/1bw5[8:1],1b,
{8}4/7b-4[8:1],{16}6,5,{8}7,{16}3,2,1h[8:1]/E7,,,4h[8:1]/B8,,,{8}6h[8:1]/E3,
{4}5b-2[8:1],{16}5/1h[8:1],,,6h[8:1]/8h[8:1],,,{8}7/5h[8:1],{4}C,
{12}8b/4h[8:3],{48}D8,A7,D7,A6,D6,A5,{24}D5,{48}D4,A3,,A2,D2,,{24}D1,D8,D7,{2}5bw1[8:1],
{12}5/3-6[8:1],{24}4,1,,,{4}3/2,{8}3h[4:1],1b,4h[4:1],8b,
{4}5V31[16:3],6h[8:1],{16}5h[8:1]/E7,,,4h[8:1],{8}E3,5,
8/4b,6/5b,1/3b,{16}8/4,1,2/6,7,8/4,5,6/2,3,4/6,7,
{1}8-4[2:1],
E
