&title=Cubibibibism
&artist=Sasuke Haraguchi feat. Choten-chan
&first=0.703
&des=Kakakakage feat. Fararararato
&lv_5=14+
&inote_5=(185)
{1}4<4[4:3],
{8}6h[4:1],,5,
{16}3,4,3,,6,,75,,4,,3h[4:1]/5,,,,4,,6,5,6,,3,,24,,5,,6/4h[4:1],,,,5,,7,5,6,,3,,2h[8:6]/4,5,6,,4,5,6,,4,5,6,
{16},7h[32:3],,3h[32:3],,6h[32:3],,2h[32:3],,
{1}1>1[8:5]/5<1[8:3],8<8[8:5]/4>8[8:3],
{8}2v3[16:2]/7v6[16:2],,,,6v7[16:2]/3v2[16:2],,,,5-1[16:11],4,6,4,5s1[16:3]*-1[16:3],,,,
{8}3b/4b,2,6h[8:2]/5-3[8:1],3-5[8:1],5,,,,
{8}6b/5b,7,3h[8:2]/4-6[8:1],6-4[8:1],4,,2<7[8:1],1,2b-6[8:1]/6,5,2b/6,,
{8}7-5[8:1],1,7-3[8:1]/4,2,7b/3,,16,2,38,7,61,2,
{8}6b/5b,7,3h[8:2]/4-6[8:1],6-4[8:1],4,,,,
{8}3b/4b,2,6h[8:2]/5-3[8:1],3-5[8:1],5,,7,6,7h[16:3]/1h[16:3],,
{32}26,53,4,,
{16}1h[16:2]/7z3[16:4],,,,,,,,,,
{8}7h[16:3]/1h[16:4],,
{32}26,53,4,,
{16}1h[16:2]/7z3[16:4],,,,,,,,,,
{8}6/1-4[8:1],,5,,6h[16:3]/3-8[8:1],,7,5,1-4[8:1],,7h[16:3],,6/3-8[8:1],7h[16:3],,5,1-4[8:1],,7,,5/3-8[8:1],,6h[16:1],7,,2z6[4:1]/7s3[4:1],63,72,,,1-5[999#8:3]*-5[999#8:3],,
{8}3/8-5[8:1],,4,,3h[16:3]/6-1[8:1],,2,4,8-5[8:1],,2h[16:3],,3/6-1[8:1],2h[16:3],,4,8-5[8:1],,2,,4/6-1[8:1],,3h[16:1],2,,7s3[4:1]/2z6[4:1],36,27,,,8-4[999#8:5]*-4[999#8:5],,
{8}25,3,4,8-4[4:1]/5,,8h[8:2],,,,3,4,8-4[8:2]/5,,8h[8:2],,,25,3,4,8-4[4:1]/5,,8h[8:2],,,,3,4,8/5,
{16}7,3,5,1,6,2,,,
{8}74,6,5,1-5[4:1]/4,,1h[8:2],,,,6,5,1-5[8:2]/4,,1h[8:2],,,74,6,5,1-5[4:1]/4,,1h[8:2],,,,6,5,1/4,
{16}2,6,4,8,3,7,,,
{16}26,,4,,6,5,7,,64,,53,,3,4,2,,15,,6,,3,4,2,,71,,86,,1,7,2,6,3s7[4:6],,,
,5,,6,,7,,1,8,1,8,1,,2,,3,,5,4,5,4,5,,,,,,,,
{16}37,,1,,7,8,6,,71,,82,,2,1,3,,48,,7,,2,1,3,,64,,57,,4,6,3,7,1s5[32:41],,,,
7,,6,,5,,3,4,3,4,3,,2,,1,,1,8,1,,,,,5b,5b,5b,5b,5b,
{8}5b-8[4:1],,8-3[4:1],,3-6[4:1],,6pp8[4:1],,8pp2[4:1],,2pp4[4:1],,4pp6[4:1],,6bqq4[4:1],,4qq2[4:1],,2qq8[4:1],,8qq6[4:1],,6-3[4:1],,3-8[4:1],,8-5[4:1],,,,,,
{8}6h[4:1]/4h[8:1],,5,7h[4:1],8,1,2h[4:1],3,4h[4:1],3h[8:2],,2,1h[4:1],8,7,6,
{24}6-3[125#12:1]/2-7[125#12:1],,,,,,15,,,26,,,,,,8h[32:4]/4h[32:4],,,,,,,,,
{24}6h[16:5]/2h[16:5],,,,,,,,,,,,
{8}2-7[8:1]/6-3[8:1],15,26,,
{8}1h[8:3]/6,,,7,8h[8:2]/3,,2,1h[8:2]/6,,7,8h[8:2]/3,,2,63,45,,
{8}4h[8:3]/7,,7,6,5h[8:2]/2b,3,4,4h[8:2]/7b,6,5,5h[8:2]/2b,3,4,36,7b/2b,,
{8}18,18,18,34,34,34,5b,6b,71,71,71,35,35,35,3h[8:2]/5h[8:2],,,,45,45,45,45,
{32}45,3,2,1,8,7,6,5,4,3,2,1,8,7,6,5,4,3,2,1,8,7,6,5,4<4[4:1],3,2,1,8,7,6,5,4,,,,,,,,
{16}6-3[8:1],,,5,6,,1-4[8:1],,,7,1,,6-3[8:1],,,4,6,,1-4[8:1],,,8,1,,7h[8:1],,6h[8:1],,5h[32:6],,,,6h[32:2]/1,,5h[32:6]/1,2,3,,6h[32:2]/1,,5h[32:6]/1,2,3,,6h[32:2]/1,,5h[32:6]/1,2,3,,6h[32:2]/1,,5h[32:6]/1,2,3,,6h[32:2]/1,,5h[32:4]/1,2,3b,,,,
{8}1>3[8:1],3<5[8:1],5<7[8:1],7>3[8:2],,3<5[8:1],5<7[8:1],7>3[8:2],,3<5[8:1],5<7[8:1],7>1[8:1],,
{8}8,7,6,7/8b,5,7/1b,4,2b/7,5,3b/7,6bpp5[4:2]/4bqq5[4:2],,,,,,,1b,,{16}3-6[8:1],,,4,3,,8-5[8:1],,,2,8,,2-5[8:1],,,4,2,,7-4[8:1],,,6,7,,2h[8:1],,3h[8:1],,4h[32:6],,,,3h[32:2]/8,,4h[32:6]/8,7,6,,3h[32:2]/8,,4h[32:6]/8,7,6,,3h[32:2]/8,,4h[32:6]/8,7,6,,3h[32:2]/8,,4h[32:6]/8,7,6,,3h[32:2]/8,,4h[32:4]/8,7,6b,,,,
{8}8<6[8:1],6>4[8:1],4>2[8:1],2<6[8:2],,6>4[8:1],4>2[8:1],2<6[8:2],,6>4[8:1],4>2[8:1],2<8[8:1],,
{8}1,2,3,,8,7,6,,18,27,{9999}3>3[74.5#32:5]*>3[74.5#32:5],6<3[8:3],{8},,,,,,,,,
{8}1b/2b,7,1b/2b-4[8:1],8,1-5[8:1]/2,8,1/3-6[8:1],2,3-1[8:1]/6,5,4-8[8:1]/3,5,4/5,
6h[8:1],1>4[8:1],8h[8:1],1q5[8:1],,,,56,1,3-7[8:1]/4<6[8:1],8,3b/4b,,82,5,17,4,82,5,
{8}8b/7b,2,8b/7b-5[8:1],1,8-4[8:1]/7,1,8/6-3[8:1],7,6-8[8:1]/3,4,5-1[8:1]/6,4,5/4,3h[8:1],2h[8:1],
{32}1h[32:3],,,,82,73,64,,,,,,1h[32:4],,,,,82,73,64,5s1[32:6],,,,,,,,,,,,,,,,72,36,4-1[8:1]/5-8[8:1],,,,,,,,,,,,,,,,,,,,,,,,,,,,,,
{16}1-5[46#32:1],,,6,,7,,4,,5,,3,4,3,,6,6/1b,,8,,7,,7,,7,,,,1-5[37#42:1],5,,,,,3,,3,,,,,,4,,,,,6,1b,7,,4,,5,,3,4,3,,6,6,,8,,1-5[46#32:1]/7,1,7,,7,,,,,,,,,,,,1b,,,,,,,,,,,6,,7/1-5[39#42:1],,4,,5,,3,4,3,,6,6,,8,,7,,7,,7/1b,,,,,,6,,5,,5,,5,,,,
{16}8-4[46#32:1],,,,3,,,,7,,,3,,2,,6,8b,4,,6,5,6,,3,3,,1,,2,,2,,2/8-4[46#32:1],,3,,2,,,,,,2,,,,,,8b,,,,,,,3,,2,,5,,4,,1,8-4[46#32:1],1,,6,6,,1,,2,,2,,2,,,,8b,,,,,,,,,,,,2,2,,,
{32}5h[16:30],,,,,,,,,,,,,,,,,,,,,,,,,1,2,3,4,,6,7,8,1,2,3,4,,6,7,8,1,2,3,4,,6,7,8,1,2,3,4,,6,7,8,1,2,3,4,,,,
{8}45,5,3,6,65,4,7,5,34,3,2,5,45,4,3,6,65,4,7,5,34,4,2,5,45,75,24,1s5[8:2]/7z3[8:2],82,,,,
{16}6,5,6,5,7,3,7,3,8,1,8,1,6,2,6,2,6,4,5,4>1[16:5],5,4,5,,6,,7,,8,,,,
2,1,2,1,3,7,3,7,4,5,4,5,2,6,2,6,1,8,1,8<5[16:5],1,8,1,,2,,3,,4b,,,,
{8}7<4[8:1]/8>3[8:1],16,87,,7<4[8:1]/8>3[8:1],16,87,,8>3[8:1]/7,,7<4[8:1]/8,,7/8-4[8:1],,,,
{8}2V46[8:1]/1V75[8:1],83,12,,2V46[8:1]/1V75[8:1],83,12,,1V75[8:1]/2,,2V46[8:1]/1,,2/1-5[8:1],,,,
{16}4/5,3,2,1,4,5,6,7,2,3,4,5,1,2,3,4,5/1,2,3,4,1,8,7,6,3,4,5,6,4,5,6,7,8/3,2,1,8,3,4,5,6,5,4,3,2,8b,8b,8b,8b,7,6,1,2,6,5,4,3,7,6,5,4,8b,8b,8b,8b,7,1,7,1,6,5,6,5,8,2,8,2,1b,1b,1b,1b,8,7,6,5,2,3,4,5,7,5,7,5,1b-5[8:1],1b,1b,1b,
{8}7,6,4,53,{16}4,5,4,5,4,5,3,5,4,5,4,6,4,5,4,5,4,,63,,,,
{16}7,,2b/4b,,5b/3b,,6b/4b,,5b/7b,,7b/8b,1b/6b,5b/2b,,7b/4b,,1b/2b,3b/8b,7h[4:1]/4b,,,,5h[4:1],,,,3h[4:1],,,,1h[4:1],,,,3b,5b,7b,,2b,4b,8b,,2b/7b,,1b/8b,2b/7b,3b/6b,,8b/1b,,1h[4:1],,,,3h[4:1],,,,5h[4:1],,,,7h[4:1],,,,8b,,1b/7b,,2b/8b,,1b/3b,,2b,2b,2b,,1b/7b,,8b,8b,8b,,,,17,,,,26,,,,35,,,,2b/6b,3b,4b/8b,,7b/3b,6b,5b/1b,,2b/7b,,{24}1b,8b,1b,8b,,,{16}6b/3b,,
{16}1>4[8:1]/5<8[8:1],,,,1-6[8:1]/5-2[8:1],,,,1-5[8:1]/5-1[8:1],,,,15,,,,
{16}4h[8:1]/3h[1:1],,,,,,4h[8:1],,,,,,,,4,,5,,6,,7,,8,,8<3[4:1],,,,{24}8/2h[8:1],7,6,5,4,3,{16}1-4[8:1],,,7,1,,8-5[8:1],,,2,8,,2-5[8:1],,,4,2,,7-4[8:1],,,6,7,,2h[8:1],,3h[8:1],,4h[32:6],,,,{24}7-1[16:1],6,5,4h[8:1]/7,,,,,,7>2[12:1],6,5,4h[8:1]/7,,,,,,7V13[8:1],6,5,4h[8:1]/7,,,,,,7V13[8:1],6,5,4h[8:1]/7,,,,,,7V13[8:1],6,5,4h[8:1]/7,,,,,,,,,{8}6>6[1:1],5>5[1:1],4>4[1:1],3>3[1:1],,5,4,3,,2,1,8,,1-4[8:1],1-6[8:1],1-5[8:1],1,1,,7/5-1[8:1],64,5/3,2qq7[8:5],2>7[2:1],,,,,,,4b/3,,{16}6-3[8:1],,,5,6,,1-4[8:1],,,7,1,,7-4[8:1],,,5,7,,2-6[8:1],,,1,2,,7h[8:1],,6h[8:1],,5h[32:6],,,,{24}2-8[16:1],3,4,5h[8:1]/2,,,,,,2<7[12:1],3,4,5h[8:1]/2,,,,,,2V86[8:1],3,4,5h[8:1]/2,,,,,,2V86[8:1],3,4,5h[8:1]/2,,,,,,2V86[8:1],3,4,5h[8:1]/2,,,,,,,,,{8}3<3[1:1],4<4[1:1],5<5[1:1],6<6[1:1],,4,5,6,,7,8,1,,8,17,2/6b,,1,28,7/3b,,15,74,{9999}3>3[74.5#32:5]*>3[74.5#32:5],6<3[8:3],,,,,,,,,{8},,,,,,,,,{8}8b/2b,5,8b/2b-4[8:1],5,1-5[8:1]/2,8,1/3-6[8:1],2,3-1[8:1]/6,5,4-8[8:1]/3,6,4/5,
6h[8:1],1>4[8:1],8h[8:1],1q5[8:1],,,,56,1,3-7[8:1]/4<6[8:1],8,3b/4b,,82,5,17,4,82,5,
{16}3,4-8[8:1],3,,3,4,3,,2h[8:3]/1,,7,,5,,3,,1b,8,1,8,1b,8,1,8,2b,7,2,7,2b,7,2,7,
{32}1b/8h[8:1],2,3,4,5,6,7,8,1,2,3,4,8b,7,6,5,4,3,2,1,84,,,,72,,,,,,,,1,8,1,8,1,8,1,8,1,8,1,8,1,8,1,8,{16}1,8,1,8,1,8,1,8,{8}1-4[8:1],8,1b,,,,,,,,,,,,
