&title=ロメオ
&artist=ハロー、ハッピーワールド!
&first=-0.04
&des=LTCalter
&clock_count=4
&lv_5=13
&inote_5=(140)
{1},,,,,,,
{8},,,,8v5[8:1]/2v5[8:1],,,,
{12}37,,4,53,,6,75,,4,53,,6,
7h[12:2]/5,,4,5/3h[12:2],,6,
7h[12:2]/5,,4,2b/6b,,,
71,,1,82,,7,68,,1,82,,7,
6h[12:2]/8,,1,8/2h[12:2],,7,
6h[12:2]/8,,1,8b,2b,6b,
3h[12:2],,5,6h[12:2]/4,,3,2h[12:2]/4,,6,5/7h[12:2],,3,
2-4[12:1]/5,,6,7-5[12:1],,2,1h[12:2],,8,2b,6b,4b,
7h[12:2],,4,3h[12:2]/5,,6,7h[12:2]/5,,3,4/2h[12:2],,6,
7b/5b,,2,1b/3b,,2b/8bw4[12:2],1b/7b,,,,,,
6h[12:2]/5,,,5/4h[12:2],,,7h[12:2]/5,,,5/3h[12:2],,,
5/8-4[12:1],,3,2^7[12:1],,5v7[12:2]*V38[12:2],5,,,,,,
2h[12:2]/1,,,1/8h[12:2],,,3h[12:2]/1,,,1/7h[12:2],,,
1/4-8[12:1],,7,6-2[12:1],,1V75[12:2]*V35[12:2],1,,,,,,
2h[12:2]/4,,5,6h[12:2]/4,,2,1h[12:2]/4,,6,7h[12:2]/5,,4,
2v5[12:1]/6,,7,8-4[12:1],,2,1>4[12:2]*s5[12:2],,,,,,
6h[12:2]/2,,,7/3h[12:2],,,5h[12:2]/1,,,8/4h[12:2],,,
6/2-6[12:1],,7,8h[12:2],,4,4^1[12:2]/8q5[12:2],,,,,,
7h[12:2]/8b,,1,8,2,1,1/3h[12:2],,1,2,8,1,
6h[12:2]/8,,1,8,2,1,4-1[8:1]*-7[8:1]/2,,,,,,
3h[12:2]/4,,5,4,6,5,6/7h[12:2],,5,6,4,5,
2h[12:2]/4,,5,4,6,5,8q6[12:2]*>4[12:2]/6,,,,,,
8h[12:2]/2b,,1,7,5,6,5/3h[12:2],,4,2,8,1,
6h[12:2]/8,,1,8,2,1,2-8[8:1]/3-7[8:1],,,,,,
5h[12:2]/3b,,4,6,8,7,8/2h[12:2],,1,3,5,4,
7b/5-2[8:1],,,5b/8b-4[8:1],,,3w7[12:2]*w7[12:2]/8b,,,,,,
1-5[12:1],,,6-3[12:1],,,1-5[12:1],,,6-3[12:1],,,
8-4[12:1],,,7v5[8:1],,,2^7[8:1]*v4[8:1],,,,,,
1-5[12:1],,,3p6[8:1],,,8-4[12:1],,,3^6[12:1],,,
7-3[12:1],,,1qq6[12:4]*qq4[12:4],,,,,,,,,
5/3-5[12:1],,6,7-4[12:1],,3,2-5[12:1],,7,8-4[12:1],,
2,3-7[12:1],,6,5-1[12:1],,2,1^6[12:2]*^4[12:2],,,,,,
8-4[12:1],,,3-6[12:1],,,8-4[12:1],,,3-6[12:1],,,
8-5[12:1],,,1h[12:2],,,7-2[8:1]/6-3[8:1],,,,,,
8h[8:2],,,5-1[8:1],,,7h[8:2],,,2,2,4,
1h[8:2],,,3-6[8:1],,,2h[8:2],,,7,7,5,
6-2[8:1],,,3-7[8:1],,,8-4[8:1],,,2h[12:2],,,
7p2[12:2]/2v7[12:2],,,,,,8,1,2,3,4,5,
6-3[8:1],,,1-6[8:1],,,7h[8:2],,,5,5,8,
2-5[8:1],,,7-2[8:1],,,1h[8:2],,,6,6,3,
2h[8:2]/4^7[12:2],,,,,,8h[8:2]/1>5[12:2],,,,,,
6p3[12:4]/2h[12:3],,,,,,1w5[8:1],,,,,,
{16}2b/8b,,3,4,,4,2,,7h[8:1],,5,,3h[8:1],,5-7[12:1],,
4,,3-1[12:1]/5b,,4,,3b/5-7[12:1],,4,,3-1[12:1]/5b,,4,,3b/5,,
6,,7-4[8:1],,4,4,7,,2,,1-5[8:1],,6,6,1,,
7-3[8:1],,4-8[8:1],,7V51[16:3],,4,,,,,,3,3,8,8,
2,1,3,5,2,1,3,5,4qq2[8:1]*^7[8:1],4,8,,4b,,,,
7,1,6,5,7,1,6,5,8^5[8:1]*pp2[8:1],8,4,,8b,,,,
1-5[8:1],,2,,8-6[8:1],,7,,1-3[8:1],,2,,8-4[8:1],,7,,
3,,2,,1v4[8:1]/5-8[8:1],,,,1b/5b,,,,6,6,4,4,
{16}7b/1b,,6,5,,5,7,,2h[8:1],,4,,6h[8:1],,2^4[12:1],,
1,,7^5[12:1]/2b,,8,,7b/2^4[12:1],,1,,7^5[12:1]/2b,,8,,7b/2,,
3,,2-5[8:1],,5,5,2,,7,,8-4[8:1],,3,3,8,,
2^5[8:1],,7-3[8:1],,2V84[16:3],,7,,,,,,6,6,1,1,
7,8,6,6,4,5,3,3,8w4[8:1],8,2,,8b,,,,
3,4,2,2,8,1,7,7,4w8[8:1],4,6,,4b,,,,
2-8[12:1],,3,,4-8[12:1],,5,,6-8[12:1],,5,,4,,3,,
26,,26,,1-4[12:1]/4^6[12:1],,,,1/4,,,,2b/7b,,,,
{12}3h[12:3]/5,,,4,,4,1h[12:2],,6h[12:2],,8h[12:2],,
7h[12:2],,5h[12:2],,4h[12:2],,2-8[12:1]*-5[12:1],,,2,,,
6h[12:3]/4,,,5,,5,8h[12:2],,2h[12:2],,4h[12:2],,
1h[12:2],,7h[12:2],,5h[12:2],,3h[12:2],,,2,2,4,
2h[12:3]/8,,,1,1,7,4^1[12:2],,5h[12:1],,7h[12:1],,
8<5[12:2],,2h[12:1],,3h[12:1],,4-7[12:1]*-1[12:1],,,4,,,
7h[12:3]/1,,,8,8,6,5h[12:1]/4h[12:1],,2h[12:1]/8h[12:1],,3h[12:1]/7h[12:1],,
6b^3[8:1],,,6b/2b^7[8:1],,,7bp4[8:2]/2b,,,,,
