&title=Dream Away (feat. Yukacco) [Hylen Remix]
&artist=DJ Noriken/DJ Genki/Yukacco
&first=0
&des=Shangle vs カザリア 两个疯子
&lv_7=炸
&inote_7=(184)
{1},,
{8}2h[4:3]/4,,,,,,5,,
{8}6h[4:3]/4,,,,,,3,,
{8}2h[4:3]/4,,,,,,8,,
{4}6,5,4,3,
{8}7h[4:3],,5,,,,3,,
{8}2h[4:3]/4,,5,,,,6,,
{8}7h[4:3]/5,,4,,,,2
,,
{8}1b/8b,1b/8b,1b/8b,,1b/8b,,Cf,,
{4}4,4,4,4,
{4}5,5,5,5,
{4}2,2,2,2,
{4}6,5,4,3,
{4}3h[4:3]/6,6,6,6,
{4}8h[4:1]/2,2,4h[4:1]/5,5,
{4}26,26,26,26,
{8}8b,8b,8b,,1b/8b,,2b/7b,,
{4}3h[4:3]/5,5,7,7,
{4}8h[4:3]/3,3,2,2,
{4}1h[4:3]/7,7,5,5,
{4}27,83,27,16,
{4}2h[4:3]/5,5,7,7,
{4}6h[4:1]/4,4,1h[4:1]/5,5,
{4}37,48,37,26,
{4}15,86,1^4[8:1]/7^4[8:1],,
{4}3,34,6,57,
{4}3,34,6,57,
{4}2,34,7,65,
{4}3-8[8:1],4-7[8:1],1^4[8:1]*^6[8:1],,
{4}2,21,7,87,
{4}2,31,7,86,
{4}3,21,6,78,
{4}2^5[8:1],1^6[8:1],4w8[8:1],,
{8}3,,24,,6,6,57,,
{8}8,,57,,3,3,24,,
{8}1,,25,,6,6,47,,
{8}8,,47,,3,3,25,,
{8}1,,24,,6,5,47,,
{8}8,,57,,3,4,25,,
{8}16,,24,,6,5,47,,
{8}58,,17,,24,,7/5-8>5[4:15],,
{1}Cf,
{1},
{1},
{1},
{4}E1,E2,E3,E4,
{4}E5,E6,E7,E8,
{4}1,2,3,4,5,6,7,8,
{4}18,12,12,12,
{4}34,54,54,54,
{4}56,78,78,78,
{4}12,34,5-2[8:1]/6-1[8:1],,
{8}8,8,7,7,6,6,5,5,4,4,3,3,2,2,1,1,
{16}1x,2x,3x,4x,5x,6x,7x,8x,1x,2x,3x,4x,5x,6x,7x,8x,
{32}1x,8x,7x,6x,5x,4x,3x,2x,1x,8x,7x,6x,5x,4x,3x,2x,
{4}
1xw5b[8:1],1b,
{48}
4x,3bx,2bx,,,,8,7bx,6bx,,,,
4,3bx,2bx,,,,8,7bx,6bx,,,,
4,3bx,2bx,,,,8,7bx,6bx,,,,
4,3bx,2bx,,,,8,7bx,6bx,,,,
4,3bx,2bx,,,,8,7bx,6bx,,,,
4,3bx,2bx,,,,8,7bx,6bx,,,,
4,3bx,2bx,,,,8,7bx,6bx,,,,
4,3bx,2bx,,,,8,7bx,6bx,,,,
2,3bx,4bx,,,,7,6bx,5bx,,,,
2,3bx,4bx,,,,7,6bx,5bx,,,,
3,2bx,1bx,,,,7,6bx,5bx,,,,
3,2bx,1bx,,,,7,6bx,5bx,,,,
3,2bx,1bx,,,,7,6bx,5bx,,,,
3,2bx,1bx,,,,7,6bx,5bx,,,,
3,2bx,1bx,,,,7,6bx,5bx,,,,
{4}8b,
{48}
6x,5bx,4bx,,,,2,3bx,4bx,,,,
6,5bx,4bx,,,,2,3bx,4bx,,,,
6,5bx,4bx,,,,2,3bx,4bx,,,,
6,5bx,4bx,,,,2,3bx,4bx,,,,
7,6bx,5bx,,,,3,4bx,5bx,,,,
7,6bx,5bx,,,,3,4bx,5bx,,,,
7,6bx,5bx,,,,3,4bx,5bx,,,,
7,6bx,5bx,,,,3,4bx,5bx,,,,
6,5bx,4bx,,,,2,3bx,4bx,,,,
7,6bx,5bx,,,,2,3bx,4bx,,,,
6,5bx,4bx,,,,2,3bx,4bx,,,,
6,5bx,4bx,,,,2,3bx,4bx,,,,
7,6bx,5bx,,,,3,4bx,5bx,,,,
7,6bx,5bx,,,,3,4bx,5bx,,,,
{8}8xbv5b[8:1]*q4b[8:1],,8xb,,
{16}
7x,5x,6x,,{24}3x,4x,3x,4x,3x,4x,3x,4x,3x,4x,
{12}3x,3x,
{6}81,7bh[12:1]/5bh[12:1],3bh[12:1]/2bh[12:1],8bh[12:1]/6bh[12:1],5bh[12:1]/3bh[12:1],8bh[12:1]/4bh[12:1],7bh[12:1]/2bh[12:1],
{24}6x,5x,6x,5x,6x,5x,6xb,5x,
{6}6xb,1b/8b,7b/5b,3b/4b,{24}1xb,8x,1xb,8x,1xb,8x,1xb,8x,1xb,8x,{24}1xb,,{8}2xb/7xb,2xb/7xb,{24}{8}3xp6q3[4:2],,
{4}
6,3p6q3[4:2],6,3p6q3[4:2],6,3p6q3[4:2],6,{8}3p6q3[4:2],,{8}6x,6x,{4}3xp6q3[4:2],6,3p6[4:1],6,
{8}3x,7xb,8xb,2xb,1xb,8xb,
{16}
2xb/7xb,,,
3/5,4b/6b,,,
4/6,3b/5b,,,
3/5,4b/6b,,,
3/6,2b/5b,,,3/6,4b/7b,,,
3/6,2b/5b,,,3/6,4b/7b,,,
5b/6b,4b/7b,,,4/7,5b/6b,,,5/6,4b/7b,,,
4/7,5b/6b,,,5/6,3b/7b,,,
3/7,4b/5b,,,4/5,2b/6b,,,
2b/6b,3b/4b,,,
2b/5b,1b/4b,,,2/5,3b/6b,,,
2/5,1b/4b,,,2/5,3b/6b,,,
7/4,8b/5b,,,7/4,6b/3b,,,
7/4,8b/5b,,,7/4,6b/3b,,,
2b/5b,1b/7b,,,1/7,3b/6b,,,
3/6,2b/8b,,,2/8,4b/7b,,,
3/6,1b/5b,,,2b/7b,4b/8b,,,
3b/6b,1b/5b,,,2b/7b,4b/8b,,,3b/6b,
{32}
1b/5b,,,,,,,,1b/6bx,2x,3x,,,,,,4bx/1b,8x,7x,,,,,,1b/4bx,2x,3x,,,,,,
6bx/1b,8x,7x,,,,,,1b/4bx,2x,3x,,,,,,6bx/1b,8x,7x,,,,,,1b/6bx,2x,3x,,5x,,,,
4bx/1b,8x,7x,,,,,,1b/6bx,2x,3x,,,,4bx,,1b,8x,7x,,,,6bx,,1b,2x,3x,,,,4bx,,
1b,8x,7x,,,,,,1b/4bx,2x,3x,,,,,,1b/5bx,8x,7x,,,,3x,,2bx/4bx,,,,,,6x,,
{16}
7b/4b,,,36,2b/5b,,,36,4b/7b,,,36,1b/5b,,,,
{32}
1b/5b,26,37,,,,,,4b/8b,73,26,,,,,,1b/5b,26,37,48,,,,,4b/8b,73,26,15,,,,,
{16}
5b/1b,,,6,7b/3b,,,3,6b/2b,,,6,8b/2b,,,,
{32}
1b/7b,62,53,4,,,,,2b/8b,37,46,5,,,,,1xh[4:1],,,,,,,,8x<1[16:138],,,,,,,,
{1}
Cf,,,,E5,C,E1,Ch[4:12],,,,
{4},,,Chf[64:1]/E3h[64:1]/E7h[64:1]/B7h[64:1]/B6h[64:1]/B2h[64:1]/B3h[64:1],
E
