&title=Take It to the Limit (Expert Mix)
&artist=DDRKirby
&first=0.02
&des=Tane
&lv_4=9
&lv_5=13+
&inote_4=(160){1},
{12}45,,,
,,,
1b/8b,,,
34,,,
{8}6,6,6,,{8}18,,56,,
3,3,4,4,
{8}5,6,7,,
18,,34,,
{16}6,,6,,
5,,,,
3,,3,,
4,,,,
{8}35,2,1,8,
,7,6,5,
{8},46,7,8,
,2,3,4,
{8}5,6,7,8,
,8,1,2<4[4:3],
{1},
{8}3h[4:3],,1,1,
,8,8,,
{8}7h[4:3],,8,8,
,1,1,,
{8}2h[4:3],,4,4,
,3,3,,
{8}5,5,2,2,
4,4,8,,
{8}6h[4:3],,8,8,
,1,1,,
{8}2h[4:3],,1,1,
,8,8,,
{8}7h[4:3],,5,5,
,6,6,,
{8}4,4,7,7,
5,5,1,,
{16}3b,,,,
,,,,
,,,,
,,,,
{16}7b,,,,
,,,,
,,,,
,,,,
{8}34,,2,2,
,2,1,,
{8}78,,7,7,
,8,1,,
{8}1^4[2:1],,,,
5,,,,
{8}8^5[2:1],,,,
4,3,4,,
{8}65,,7,7,
,7,8,,
{8}21,,2,2,
,1,8,,
{8}3bq8[2:2],,,,
,,,,
{8},,,,
,,6,,
{1}7q4[2:2],
{8},,,,
,,2,,
{8}1q6[2:1],,,,
,,,,
{8}5q2[2:1],,,,
,,,,
{1}4q5[2:1],
{8}8,,7,7<3[4:1],
,,,,
{8}1h[8:3],,,3h[8:3],
,,5<1[2:1],,
{8},,,,
5,,6,,
{8}7,,7,8,
,2,1p8[4:3],,
{1},
{1}8h[1:1],
{8}4h[4:3],,,,
,,5,,
{8}6h[8:3],,,8h[8:3],
,,1,,
{16}2h[16:3],,,3>6[2:1],
,,,,
{8},,,,
(170)
{8}1b,,1,,
8,8,8,,
{8}8,,8,,
1,1,1,,
{8}2,2,1,1,
38,,,,
{8}2,2,1,1,
38,38,38,,
{8}34,,56,,
7,8,7,,
{8}7,7,8,8,
16,,3,,
{8}3,4,3,,
6,5,6,,
{8}7,7,8,8,
16,,3,,
{16}8-4[4:1],,,,
4,,3,,
2,,1,,
8,,7,,
{16}6-1[4:1],,,,
1,,2,,
3,,4,,
5,,6,,
{8}7-4[4:1],,4,3,
2,1,8,,
{8}7,7,8,8,
16,5,4,3,
{16}1-5[4:1],,,,
5,,6,,
7,,8,,
1,,2,,
{16}3-8[4:1],,,,
8,,7,,
6,,5,,
4,,3,,
{8}2-5[4:1],,5,6,
7,8,1,,
{8}2,2,1,1,
83,4,5,6,
(175)
{8}1,,12,,
2,2,12,,
{8}8,,78,,
7,7,87,,
{8}1-4[4:1],8,7,6,
5,4,3,,
{8}2,1,8,7,
6,6,57,,
{8}7,6,5,4,
2,2,34,2,
{8}34,2,1,8,
67,5,4,3,
{8}2,2,8,8,
1,1,6,6,
{8}8,6,4,2,
1,3,5,7,
{8}18,,12,,
1,3,4,6,
{8}81,,87,,
8,6,5,3,
{8}21,,7h[4:1],8,
{16}8,,,,
5,,6,,
{8}78,,2h[4:1],1,
{16}1,,,,
3,,2,,
{8}18,,8h[4:1],1,
1,,6,7,
{8}8h[4:1],,6h[4:1],,
4h[4:1],,2,,
{8}8,8,3,4,
1,1,6,5,
{8}48,48,37,37,
26,26,15,15,
{4}1-5[2:1],,8,,
{4}1-5[2:1],6,8,,
{4}1-5[2:1],5,7,,
{4}2-5[2:1],5,7,,
{4}2-5[2:1],6,8,,
{4}2-5[2:1],6,7,8,
{4}1-5[2:1],5,6,7,
{1}1w5[2:1],
{4}8-4[2:1],,1,,
{4}8-4[2:1],3,1,,
{4}8-4[2:1],4,2,,
{4}7-4[2:1],4,2,,
{4}7-4[2:1],3,1,,
{4}7-4[2:1],3,2,1,
{4}8-4[2:1],4,3,2,
{1}8w4[2:1],
{8}8b,,
&inote_5=(160){1},
{12}6,5,7,
3,4,2,
1b/8b,,,
65,,,
{8}7,8,12,,{8}2,1,78,,
6,7,81,2,
{8}53,4,65,7,
2,1,84,,
{16}3,,5,,
68,,,6,
4,5,4,,
13,,,,
{8}35,2,1,7/8^3[4:1],
,7,6,5,
{8},46,3,2/1^6[4:1],
,2,3,4,
{8}56,7,38,2,
17,8,{16}2,7,1,8,
{16}1,2,3,4,
7,6,5,4,
2,1,8,7,
4,5,6,7,
{16}8/2-5[8:1],,,,
8,,8^5[8:1],,
,,3,,
2,,1,,
{16}6/8-3[8:1],,,,
5,,5^8[8:1],,
,,2,,
3,,4,,
{8}4^2[8:1],,6,5,
4^1[8:1],7,6,,
{16}1,7,8,,
78,,78,,
1,8,2,,
13,,13,,
{16}2,1,3,8,
2,1,3,8,
2-6[8:1],,,,
,,,,
{16}7-5[8:1],4,6,,
,,2,,
2^8[8:1],5,3,,
,,,,
{16}7-4[8:1],,,,
1,,1>4[8:1],,
,,6,,
7,,8,,
{16}8,2,1,,
12,,12,,
3,8,2,1,
3<1[4:6],8,2,1,
{16}3b,,,,
,,,,
,,,,
,,,,
{16},,,,
,,,,
,,,,
,,,,
{16}57,,4,5,
4,,57,,
4,5,4,,
57,,24,,
{16}5,4,5,,
24,,24,,
5,4,6,3,
57,,13,,
{16}8,3,1,2,
8,3,1,2,
8-4[8:1],,,,
,,,,
{16}1,6,8,7,
1,6,8,7,
1-5[8:1],,4,,
6,,8,,
{8}4^1[8:1],7,6,5,
4,5,{16}3,4,3,,
{16}5,4,5,,
57,,57,,
4,5,2,7,
3<2[4:6],6,1,8,
{8}3b,,,,
,,,,
{8},,,,
,,6,7,
{8}8h[8:3],,,2h[8:3],
,,4-8[4:2],,
{8},,,,
,,3,2,
{8}1h[8:3],,,3h[8:3],
,,5,,
{8}7h[8:2],,3h[4:1],,
4-8[8:1],,,,
{8}1^4[8:1],,7,6^1[8:1],
,4,3^6[8:1],,
{8}8,,1,2,
3^8[8:1],4,5,,
{8}7^4[8:1],,1,2^7[8:1],
,4,5>7[8:3],,
{8},,,,
4,3,2,1,
{8}1-3[8:1],,1,7-5[8:1],
,7,8,,
{8}15,5,4,6,
48,4,5,3,
{8}12,4,5,3,
6,4,13,,
{8}87,5,4,6,
3,5,86,,
{8}18,3,4,2,
6,4,18,,
{16}8h[16:3],,,7h[16:3],
,,6,,
{12}2,4,3,
7,5,6,
(170)
{8}1b-5[8:1],,1,,
8^3[8:1],8,8,,
{8}8-4[8:1],,8,,
1^6[8:1],1,1,,
{16}7,8,6,1,
7,8,6,1,
7-3[8:1],,,,
,,,,
{16}2,1,3,8,
2,1,3,8,
2-6[8:1],,4,,
6,,8,,
{8}48,7,36,5,
34,2,51,,
{16}7,8,6,1,
7,1,6,8,
7-3[8:1],,5,,
3,,1,,
{8}51,2,63,4,
65,7,48,,
{16}2,1,3,8,
2,8,3,1,
2-6[8:1],,4,,
6,,8,,
{16}8-4[8:1],,,4,
8,,2,,
2,3,2,,
1,,8,,
{16}78,,7,8,
7,,8,,
1,8,1,,
1,,2,,
{16}3,,8,1,
8,,7,,
2,1,2,,
3,,4,,
{16}4,7,5,6,
4,7,5,6,
4,5,4,,
3,,2,,
{16}1-5[8:1],,,5,
1,,7,,
7,6,7,,
8,,1,,
{16}8,3,1,2,
8,3,1,2,
8,1,8,,
7,,6,,
{16}5,,5,3,
4,2,5,1,
7,8,7,,
7,,8,,
{16}1,7,2,8,
1,7,2,8,
3-7[8:1],,5,,
7,,,,
(175)
{8}1-5[8:1],,1,,
1-3[8:1]*-7[8:1],1,1,,
{8}8-4[8:1],,8,,
8-6[8:1]*-2[8:1],8,8,,
{8}1-5[8:1],8,7,6,
5-1[8:1],4,3,,
{16}3,2,1,,
56,,6,7,
8,,34,,
25,,16,,
{16}78,,6,,
45,,3,,
2,1,2,1,
38,,12,,
{16}8,7,6,,
45,,3,,
12,,3,,
56,,7,,
{16}8,3,1,2,
8,3,1,2,
1,3,8,2,
1,3,8,2,
{16}8,7,6,5,
34,2,1,8,
5,6,7,8,
12,3,4,,
{8}57,4,13,2,
{16}1,,7,8,
6,,5,,
{16}34,,2,,
2,1,3,,
8,3,7,2,
6,1,5,8,
{8}4,8,26,8,
{16}43,,,,
3,7,4,8,
{8}5,1,37,1,
{16}57,,,,
6,2,5,1,
{8}4,8,26,48,
26,,3,4,
{8}25,6,37,8,
41,2,35,4,
{16}8,3,5,4,
8,3,5,4,
7,1,5,4,
7,1,5,4,
{16}5,4,6,3,
7,2,8,1,
5,2,6,3,
7,4,8,5,
{4}1,1-5[8:1],18,,
{8}2,8,1-5[8:1],,
18,,,,
{8}3,5,1-5[8:1],,
18,,,,
{8}3,5,1-5[8:1],8,
12,,,,
{8}2,6,1-5[8:1],8,
12,,,,
{8}4,6,1-5[8:1],7,
12,,4,,
{8}46,7,8-4[8:1],1,
82,,3,,
{4}5<8[4:1],8>3[4:1],3^6[4:1],,
{8}8,1,8-4[8:1],,
81,,,,
{8}7,1,8-4[8:1],2,
81,,,,
{8}6,4,8-4[8:1],,
81,,,,
{8}6,4,8-4[8:1],1,
87,,,,
{8}7,3,8-4[8:1],1,
87,,,,
{8}5,3,8-4[8:1],2,
87,,5,,
{8}53,2,1-5[8:1],8,
71,,6,,
{4}4>1[4:1],1<6[4:1],6^3[4:1],,
{8}8b,,
