&title=[習]はいよろこんで
&artist=こっちのけんと
&first=0
&des=--
&genre=宴会場
&cabinet=DX
&clock_count=4
&lv_7=13?
&des_7=RinA
&inote_7=
(147){4},,,,,,,,,,,,,,,,{1}6h[2:3],
,{4}3h[4:3],
6x,8x,6x,
{2},8/1,
{4}7h[4:3],2x,4x,2x,
{2},8/1,
{4}3h[4:3],6x,8x,6x,
{2},8/1,
{4}7h[4:3],2x,4x,2x,
,8/1,,3h[4:7],
{8}6x,8x,{4}6x,{2},{8}6x,
8x,{4}6x,,7h[4:7],
{8}2x,4x,{4}2x,{2},{8}2x,
4x,{4}2x,,3h[4:7],
{8}6x-4[12:1],8x,{4}6x,{2},{8}6x-4[12:1],
8x,{4}6x,,7h[4:7],
{8}2x-8[12:1],4x,{4}2x,{2},{8}2x-8[12:1],
4x,{4}2x,{2},{8}2x/6x,
4x/8x,{4}2x/6x,{2},{8}2x/6x,
4x/8x,{4}2x/6x,{2},{8}2x/6x,
4x/8x,{4}2x/6x,{2},{1}8/1,
{8}2x/6x-4[12:1],4x/8x,{4}2x/6x,{2},{8}2x/6x-4[12:1],
4x/8x,{4}2x/6x,{2},{8}6x/2x-8[12:1],
8x/4x,{4}6x/2x,{2},{8}6x/2x-8[12:1],
8x/4x,{4}6x/2x,,8bx/1bx,
{8}2x/6x,4x/8x,2x/6xh[8:1],8x,{4}2x/6x,{8}2x/6x,4x/8x,
2x/6xh[8:1],8x,{4}2x/6x,{2}8/1,
{8}2x/6x,4x/8x,6x/2xh[8:1],4x,{4}2x/6x,{8}2x/6x,4x/8x,
6x/2xh[8:1],4x,{4}2x/6x,{2}8/1,
{8}2x/6x-4[12:1],4x/8x,2x/6x,8x,{4}2x/6x,{8}2x/6x-4[12:1],4x/8x,
2x/6x,8x,{4}2x/6x,{2}8/1,
{8}6x/2x-8[12:1],8x/4x,6x/2x,4x,{4}6x/2x,{8}6x/2x-8[12:1],8x/4x,
6x/2x,4x,{4}6x/2x,{2}8/1,
{8}2x/6x-4[12:1],4x/8x,2x/6x,8x,{4}2x/6x,{8}2x/6x-4[12:1],4x/8x,
2x/6x,8x,{4}2x/6x,{2}8/1,
{8}6x/2x-8[12:1],8x/4x,6x/2x,4x,{4}6x/2x,{8}6x/2x-8[12:1],8x/4x,
6x/2x,4x,{4}6x/2x,{2}8/1,
{8}2x/6x-4[12:1],4x/8x,2x/6x,8x,{4}2x/6x,{8}2x/6x-4[12:1],4x/8x,
2x/6x,8x,{4}2x/6x,{2}8/1,
{8}6x/2x-8[12:1],8x/4x,6x/2x,4x,{4}6x/2x,{8}6x/2x-8[12:1],8x/4x,
6x/2x,4x,{4}6x/2x,{2}8h[4:1]/1h[4:1],
{4}3h[4:3],6,8,6,
{2},8/1,
{4}7h[4:3],2,4,2,
{2},8/1,
{4}3h[4:3],6,8,6,
{2},8/1,
{4}7h[4:3],2,4,2,
{2},8/1,
{4}3h[4:7],{8}6,8,{2}6,
{4},{8}6,8,{2}6,
{4}7h[4:7],{8}2,4,{2}2,
{4},{8}2,4,{2}2,
{4}3h[4:7],{8}6-4[12:1],8,{2}6,
{4},{8}6-4[12:1],8,{2}6,
{4}7h[4:7],{8}2-8[12:1],4,{2}2,
{4},{8}2-8[12:1],4,{2}2,
{8}2/6,8/4,{4}2/6,{2},{8}2/6,
8/4,{4}2/6,{2},{8}2/6,
8/4,{4}2/6,{2},{1}8/1,
{8}2/6-4[12:1],4/8,{4}2/6,{2},{8}2/6-4[12:1],
4/8,{4}2/6,{2},{8}6/2-8[12:1],
8/4,{4}6/2,{2},{8}6/2-8[12:1],
8/4,{4}6/2,,8/1,
7/6,5/4,2/3,8/1,
8/1,2/3,5/4,7/6,
{1}8bxh[4:3]/1bxh[4:3],
{8}2/6,4/8,2/6h[8:1],8,{4}2/6,{8}2/6,4/8,
2/6h[8:1],8,{4}2/6,{2}8/1,
{8}2/6,4/8,6/2h[8:1],4,{4}2/6,{8}2/6,4/8,
6/2h[8:1],4,{4}2/6,{2}8/1,
{8}2/6-4[12:1],4/8,2/6,8,{4}2/6,{8}2/6-4[12:1],4/8,
2/6,8,{4}2/6,{2}8/1,
{8}6/2-8[12:1],4/8,2/6,4,{4}2/6,{8}6/2-8[12:1],4/8,
2/6,4,{4}2/6,{2}8/1,
{8}2/6-4[12:1],4/8,2/6,8,{4}2/6,{8}2/6-4[12:1],4/8,
2/6,8,{4}2/6,{2}8/1,
{8}6/2-8[12:1],4/8,2/6,4,{4}2/6,{8}6/2-8[12:1],4/8,
2/6,4,{4}2/6,{2}8/1,
{8}2/6-4[12:1],4/8,2/6,8,{4}2/6,{8}2/6-4[12:1],4/8,
2/6,8,{4}2/6,{2}8/1,
{8}6/2-8[12:1],4/8,2/6,4,{4}2/6,{8}6/2-8[12:1],4/8,
2/6,4,{4}2/6,{2}8/1,
{8}2/6>3[8:1],4/8,2/6,8,{4}2x/6x,{8}2/6>3[8:1],4/8,
2/6,8,{4}2x/6x,{2}8/1,
{8}2/6>3[8:1],4/8,2/6,8,{4}2x/6x,{8}2/6>3[8:1],4/8,
2/6,8,{4}2x/6x,{2}8/1,
{8}2/6>3[8:1],4/8,2/6,8,{4}2x/6x,{8}2/6>3[8:1],4/8,
2/6,8,{4}2x/6x,{2}8/1,
{8}2/6>3[8:1],4/8,2/6,8,{4}2x/6x,{8}2/6>3[8:1],4/8,
2/6,8,{4}2x/6x,{2}8xh[2:1]/1xh[2:1],
E
