&title=星屑ディスタンシア
&artist=ARM; 普透明度; Brasscapsule
&first=0
&des=きっとあなたしか受信できないの
&lv_5=13+
&inote_5=(110)
{4}
,,,,
{8}
3,C,,C,,C,,C,
6,C,,{24}3,5,4,6,,6h[24:3],,,8,,,6,5,,,
2h[8:1]/4,,,8,,,5/7h[8:1],,,1,,,2,,3h[8:1]/4,,,7,,,,45,,,
7h[8:1]/5,,,1,,,4/2h[8:1],,,8,,,6,,5/6h[8:1],,,3,,,5,4,,,
2h[24:4],,,,,8b/A3f/B3/E3/E4,,,6,8,,,6h[24:4],,,,,3b/A7f/E7/E8/B7,,,2,1,,,
5,,,57,,,35,,,57,,,4,,5,4,,3,4,,5,4,,,
3,,,2h[24:17]/A5/B5/E6,,,6,,,A8/B8/E8,,,7,,,A5/B5/E6,,,6,,7,8,,,
5,,,7h[24:17]/A4/B4/E4,,,3,,,A1/B1/E2,,,2,,,A4/B4/E4,,,3,,2,1,,,
3v8[24:3],,,6,,A7f/E8/E7/B7,,,,,,,6v1b[24:3],,,3,,A2f/E2/E3/B2,,,,,,,
8z4b[8:4],,,,,,,,,,,,,,,,,,,,,,,,
6,,,57,,,,,4,5,,,34,,,6,,5,,,3,4,,,
65,,5,6,,5,7,,5,8,,4,8,,3,8,,2,8,,1V73-5[24:13],8V26-4b[24:12],,1,
8,,,,,,,,,,,,,,,,,,1b/8b,,,,,,
2-6[12:1]/5,,,1,,,2/4>7[24:4],,,5h[8:1],,,,,,6h[8:1],,,5,,,78,,,
7,,7,6,,6,5,,5,4,,,6-8[12:1],,,2-4[12:1]/5,,,,,,,,,
8-4[12:1],,,7,,,5<2[24:4]/8,,,3h[24:3],,,,,,4h[8:1],,,8-6[8:1],,,56,,,
3v8[8:1]/8,,,4,,,73,,,6,,,5x-7[12:1],,6,4x,,3,5x,,,1b,,,
3-7[12:1]/5,,,2,,,3/6>1[24:4],,,5h[8:1],,,,,,7h[8:1],,,8,,,12,,,
2,,2,3,,3,4,,4,5,,3x/4-2[12:1],,,5-7[12:1]/6x,,,4x,,,5,,,,
2>7[4:1],,,,,,C,,,,,,2>7b[4:1],,,,,,C,,,,,,
2,,8,,7,,6,,25,,3,,4,,75,,6,,5,,3,,4,,
5-2[24:3],,,,,,5/B7/B6,,,5<8[24:3],,,,,,5/B3/B4,,,2,,,53,,,
2x,3,4,7x,6,5,1x,2,3,8x,7,6,3x,2,1,6x,7,8,4x,3,2,5x,6,7,
3,,3,4-6[12:1],,4,2,,2,4,,,1,,1,6,,6,5,,5,8,,,
{24}8h[8:1],,,6x,5,4,1xh[8:1],,,3x,4,5,{24}8xh[8:1],,,6x,5,4,3/7x,,,24,,,
6,,6,4,,4,2,,2,8,,8,6<1[12:1],,5-2[12:1],,,,,,,,,,
7,,7,1,,1,3,,3,2,,2,4-7[12:1],,2-5[12:1],,,,,,,,,,
7-4[8:1],,,56,,,7,,,3,,,2-5b[8:1],,3,4,,5,2,,,6,,,
4b/5b,,,,,,,,,6,4,5,3,,3h[24:3],,,1,,,3,4,,,
45,,5,4,,4,5,,,3/E6/B5,,,1,,,6/B3/E4/E3,,,8,,,3/B6/E6/E7,,,
2xh[4:1],,,E5/B5/E6,,,7xh[4:1],,,B3/E4/E3,,,1xh[8:1],,,E7/B6/E6,,,3x,,3,5x,,,
7,,7,5x,,5,8,,8,5x,,,6h[12:1],,5,6x,,,3h[12:1],,4,3x,,,
7h[12:1],,5,6x,,3h[8:1],,,8,1x,,,8-4[12:1],,,1-5[12:1],,,8,,,1,,,
7,,7,1x,,1,8x,,8,3x,,3,5x,,5x-7b[16:1],4x,,4x-2b[16:1],,,5xb,,,4xb,
,,6,1x,,1,4x,,4,3x,,3,7xh[12:1],,5xh[12:1],,1xh[8:1],,,{48}A2f,D3,A3,D4,,,,A8F,D8,A7,
{24}D7,,4qq4[12:2],,,,,,,,,,{16}7,7,3,3,5,5,46,46,
{24}7xV15[12:2],,,,,,,,4b,,,,2x-6-4[12:2],,,,,,,,7b,,,,
8x-4[12:1],,,,,,{16},2,2,5,5,8q1>8[4:4],,,,,,,
,,,,,,,,,,,,,,,,
Cf,,,,,,,,{24},,,,,,8,1,8,1,8,1,
8xb-6[12:1],,,4-8[12:1]/5,,,8,,,4,,,7,,7,1,,4,3,,7,5,,1,
2-6[12:1],,,34,,,2,,,8,,,12,,6,5,,7,8,,4,2,,6,
4-2[12:1],,,8-4[12:1]/1,,,4,,,8,,,1,,1,7,,5,6,,3,4,,2,
1-3[12:1],,,7-5[12:1]/8,,,1,,,7,,,4,,4,8,,8,2,1,3,8,1,7,
8-5[12:1],,,12,,,8,,,2,,3,4,,1,8,,5,6>3[12:1],,,78,,,
2<7[12:1],,,1,,,42,,,6,,,57,,2,4,,7,5,,2,1,,,
5v7[8:1]/4,,3,6,,A2f/B2/E3/E2,,,,,,,4-8-2b[12:2]/5,,6,3,,A7f/B7/E7/E8,,,,,,,
6b-8[12:1]/3,,5,,5,,3b-1b[12:1]/6,,4,,4,,8,,8-4[12:1],,,17,,,8b,,,,
2,,3>8[12:1],,,5/7-4b[12:1],,,3-7[12:1],,,7,,,3,,,5,5h[8:1],,,2,,,
7,,1/6<1b[12:1],,,2-5[12:1],,,6-2b[12:1],,,2,,,6,,,4,4h[8:1],,,5,,,
7>3<8[4:2],,,,,,,,,,,,8>4<1b[4:2],,,,,,,,,,,,
E3,,,E4,,,E5,,,E6,,,E7/E3,,,E8/E4,,,E1/E5,,,E2/E6,,,2x>6[8:1],,,,,,,,,E
