&title=DEAREST DROP
&artist=田所あずさ
&first=0
&des=reflectW
&lv_5=12+
&inote_5=(146)
{1},
{16}B1,,,,,,,,B2,,,,,,,,
{16}B3,,,,,,,,B4,,,,,,,,
{16}B8,,,,,,,,B7,,,,,,,,
{16}B6,,,,,,,,5xbw1b[8:1]/Cf,,,,,,,,
{16}37,,6,5,6,,25,,3,4,3,,4/7h[4:1],,,,
{16}3,,2,1,2,,61,,7,8,7,,6/1h[4:1],,,,
{16}7,,6,4,6,,28,,3,5,3,,1/7h[4:1],,,,
{16}3,,2,1,2,,61,,7,
8,7,,8x/1x,8x/1x,8x/1x,8x/1x,
{16}7x/2x-5[8:1],,,,,,,,8p4[8:1]/4,,,,,,,,
{16}3^6[8:1],,,,32,,,,8h[16:3],,,6h[16:3],,,4,,
{16}3p2[16:6]/7^4^7[16:6],,,,,,,,,,,,1,8,2,7,
{16}3h[16:3],,,5h[16:3],,,4,,3b/8bqq8[4:1],,,,,,,,
{16}4h[4:1],,,,,,7x,,5,,6,,4,,5,,
{16}3h[4:1],,,,,,2x,,4,,3,,5,,4,,
{16}6h[16:3],,,4h[16:3],,,5,,2h[16:3],,,8h[16:3],,,1,,
{16}46,,,28,,,35,,6x/4x-1[8:1],,,,,,,,
{16}6h[16:3],,,2h[16:3],,,C,,4h[16:3],,,8h[16:3],,,C,,
{16}1h[16:3],,,7h[16:3],,,8,,Ch[16:6],,,,,,,,
{16}3h[16:3],,,2h[16:3],,,1,,6h[16:3],,,7h[16:3],,,8,,
{16}1b-7-5[4:1]/2bh[16:3],,,,,,,,3,4,2,,6,5,7,,
1x-4[8:1]/8x-5[8:1],,,,18,,,,25,,3,,4,,3,,
2x-5[8:1]/5x,,,,2/6-1[8:1],,,,8-4b[8:1]/6,,,,82,,,,
3xh[16:3],,,8h[16:3],,,E3/B2,,6h[16:3],,,1h[16:3],,,E7/B7,,
{16}2h[16:3],,,5h[16:3],,,4v5-2[4:1],,4,,,,,,6,,
{16}57,,8,1,,,3,,24,,1,8,,,7,,
{16}68,,4,3,,,2,,13,,5,6,7xh[8:1]/4xh[8:1],,,,
{16}3-8-2[4:1],,,8,,,7,,6-3-5[4:1],,,3,,,2,,
{16}1,,7p4[8:3]/8pp3[8:3],78,,,,,,,,,,,,,
{16}1x-4[8:1]/6x-1[8:1],,,,,,,,83,,,,4x-8[8:1]/5x-7[8:1],,,,
{16},,,,61,,,,24,,35,,46,,57,,
{16}8x-3[8:1]/6x-1[8:1],,,,,,,,48,,,,5x-1[8:1]/2x-4[8:1],,,,
{16},,,,38,,,,75,,64,,53,,42,,
{16}1,,2-5[8:1],8,,8,2,,8x,,7x-4[8:1],1x,,1x,7x,,
{16}2,,3^8[8:1],4,,4,3,,7x,,6x^1[8:1],5x,,5x,6x,,
{16}2bh[4:1],,,,,,E7,,E6,,E4,,E3,,,,
{16}7b/3b,,,1b/5b,,,4b/8b,,2b/6b,,,1b/7b,,,3b/5b,,
{16}8bw4[8:4]/4b,,,,8!w4b[14600#8:400]*w4b[14600#8:400],,,,,,,,,,,,
{16}1^4[8:1]/5^8[8:1],,,,15,,,,1-6[8:1]/5-2[8:1],,,,15,,,,
{16}1q5[8:1]/5q1[8:1],,,,15,,,,48,,37,,26,,15,,
{16}8q4[8:1]/4q8[8:1],,,,48,,,,5v2[8:1]/1v6[8:1],,,,15,,,,
{16}7bh[4:1]/3b-7b[8:1],,,,3bx,,,,B7/B6,,,B5/B4,,,B2/B3,,
{16}1v6[8:1]*v4[8:1]/Cf,,,,,,,,3h[1:1]/E7/B6,,,E2/B2,,,B4/A4,,
{16}E3/B3,,,E8/B7,,,B5/A5,,8x-4[8:1],,,,,,,,
{8}2-5[8:1],,1/2,8qq4[8:3],,,,3,3-8b[8:1],
{8},34,5s1b[8:2],,,,,
{16}7^4[8:1]/3^8[8:1],,,,73,,,,7-2[8:1]/3-6[8:1],,,,73,,,,
{16}7p3[8:1]/3p7[8:1],,,,73,,,,48,,51,,62,,73,,
{16}8p4[8:1]/4p8[8:1],,,,48,,,,3^6[8:1]/7^2[8:1],,,,73,,,,
{16}3xh[16:6]/E6/A5f,,,B2/E3f,,,A8f/E1,,6xh[16:6]/E4/A4f,,,B7/E7f,,,A1f/E1,,
{16}8/4-8b[8:1],,,,,,6-8-5-1[8:3],,,,1,,2,,3,,
{16}4-2[8:1],,,,1-5[8:1]/4,,,,6-8[8:1]/1,,,,3p6[8:1]/6,,,,
{16}Cf,,,,8^1-3[32:5]/1^8-6[32:5],,,,18,,,,{32}A4,A5,A6,A7,A8,A1,A2,A3,
{16}4xpp6[8:1]*qq2[8:1],,,,,,,,53,,,17,,,28,,
{16}6xh[4:3]/4<8qq8[4:2],,,,,,,,,,,,,,,,
{1},,,,
&inote_6=
