&title=GO-乱心
&artist=打打だいず
&first=-0.07
&des=団子ネコ
&lv_5=14+
&inote_5=(205)
{2},{4}37,{8}6,5,{4}8w4[8:1],8,
{4}2b-6[8:1],26,{8}7h[8:1],5,3h[8:1],1,{4}8b-4[8:1],48,
{8}3h[8:1],5,7h[8:1],1,{4}2b-6[8:1],26,{8}7h[8:1],5,3h[8:1],1,7b/5b,
{16}3,4,{8}3,{16}6,5,{8}6,4h[8:1],8h[8:1],2,6b/4b,
{16},{8}3h[16:3],{16},{8}5,34,{16},{8}6h[16:3],{16},{8}4,56,{16},{8}2h[16:3],{16},{8}8,17,{16},{8}7h[16:3],{16},{8}1,28,{16},{8}3,{16},3,4,{8}3,5,{16}4,6,4,5,{8}4,{12}7,6,7,{16}5,6,{4}5,48,2p5[4:1]/6p1[4:1],{2},
{4}8-3[8:1]/4-7[8:1],8b/4b,{8}26,37,{4}4/8V61[2:1],8,2,3,4,5-2[8:1]/1-6[8:1],5b/1b,{8}37,26,{4}1/5V74[2:1],5,3,2,1,8w4[8:1],8b,{8},
{8}2,26,{4},{8}7,{4}3/7-4[8:1],{8}78,{4}1-6[8:1],{8}12,3,4,5,5,7,7,{16}4,6,4,6,3,5,3,5,{1}4bw8[2:1],
{8}2,26,7,37,{4}4v1[8:1]/8v5[8:1],4b/8b,
{8}2/6-4[8:1],{16}7,8,{8}6,2,7/3-5[8:1],{16}2,1,{8}3,7,6v1[8:1],1p5[8:1],6,2,{4}3v8[8:1],34,
{8}6-1[8:1]/4,{16}7,5,{8}6,2,3-8[8:1]/5,{16}2,4,{8}3,7,6-3[8:1],3V57[8:1],6,2,{4}1q5[8:1],18,
{8}7-1[8:1]/3,{16}6,5,{8}7,3,6/2-8[8:1],{16}3,4,{8}2,
{8}7^5[8:1],7,3^1[8:1],3,{8}7,{24}7,6,5,{8}2,{24}3,4,3,{8}4,2,18,7,56,{16}3,4,{4}3-8[8:1],35,{8}46,{4}7-5[8:1]/3-5[8:1],3b/7b,{16}2,8,1,8,
{8}2-5[8:1],{16}3,1,{8}2,8,1/7-4[8:1],{16}6,8,{8}7,3,2v5[8:1],5p1[8:1],2,6,{4}7-3[8:1],7,
{8}2-5[8:1],{16}3,1,{8}2,7,6-1[8:1],{16}7,5,{8}6,{4}3,
{8}2h[8:1]/4h[8:1],{16},{8}3h[8:1]/5h[8:1],{16},{8}7h[8:1]/8h[8:1],{16},{8}1h[8:1]/2h[8:1],{16},{8}4b/5b,4b/5b,{4},{8}6,56,{4},{8}3,34,{4},{8}27,{4}18,{32}1b/8b,27,36,45,{8},
{8}2v5[8:1],{16}3,1,{8}2,8,1/7-4[8:1],{16}6,8,{8}7,3,2-5[8:1],5-1[8:1],2,6,{4}7w3[8:1],7<8[1:2],{1},,
{1}3h[1:1],{8}5,5,5,5,{4}5w1[8:1]/3,5,
{8}3-8[8:1],5h[16:1],3,5h[16:1],7-3[8:1],5h[16:1],7,5h[16:1],1>4[8:1],5h[16:1],1,5h[16:1],3,45,6,57,8-2[8:1],4,8-6[8:1],4,8-3[8:1],4,8-5[8:1],4,8,3,34,2,{16}1,3,1,3,{8}8,64,
{8}6-1[8:1],4h[16:1],6,4h[16:1],2-6[8:1],4h[16:1],2,4h[16:1],8<5[8:1],4h[16:1],8,4h[16:1],6,54,3,42,{4}1b,{16}6,5,6,4,{8}8b,46,1,35,8h[16:3],{16},{8}2h[16:3],{16},{8}6,{4}4-1[8:1]/6-1[8:1],6b/4b,
{8}3-8[8:1],5h[16:1],3,5h[16:1],7-3[8:1],5h[16:1],7,5h[16:1],1>4[8:1],5h[16:1],1,5h[16:1],3,45,6,57,8-2[8:1],4,8-6[8:1],4,8-3[8:1],4,8-5[8:1],4,8,3,34,2,{16}1,3,1,3,{8}8,46,
{8}2h[16:3],{16},{8}4b,{16},6,5,{8}7h[16:3],{16},{8}5b,{16},3,4,{8}1h[16:3],{16},{8}5b,{16},6,5,{8}8h,{16},4,{12}6,5,6,{4}48,{12}3,4,3,{4}15,{12}6,5,6,{4}4h[4:1]/8,8h[4:1],{16}2,3,4,5,{24}8,7,6,5,4,3,{1}2/1b>8[1:4],,3h[2:1],4h[2:1],5>1[1:1],7h[2:1],6V48[1:1],{2}2h[2:1],6h[4:1],
{8}4h[16:3],{16},{8}6h[16:3],{16},{8}5,3h[16:3],{16},{8}7h[16:3],{16},{8}1,8,2,8-2[8:1],2-6[8:1],{2}8,
{8}5h[16:3],{16},{8}3h[16:3],{16},{8}4,6h[16:3],{16},{8}2h[16:3],{16},{8}8,1,7,1-7[8:1],7-3[8:1],{2}1,
{8}4h[16:3],{16},{8}6h[16:3],{16},{8}5,3h[16:3],{16},{8}7h[16:3],{16},{8}1,{4}8^5[4:1],5^2[4:1],2^7[4:1],7,4w8[8:1],4,5w1[8:1],5,3-8[8:1]*-7[8:1],3,6-1[8:1]*-8[8:1],6,
{24}2,3,4,{4}5V31[2:1],{8}6,6,,6,7,{4}8V64[4:1],4V28[4:1],8,4,
{24}7,6,5,{4}4V68[2:1],{8}3,3,,3,2,{4}1V35[4:1],5V71[4:1],1,5,
{16}1,5,1,5,2,6,2,6,3,7,3,7,{8}4b,{16}8,1,{32}8b,7,6,5,{8},{16}1,8,{32}1b,2,3,4,{8},
{8}7,61,5,2,2,4,4,{16}3,5,3,5,4,6,4,6,{1}5bw1[2:1],
{8}5-7[8:1]/3,3,3,3,4-8[8:1]/3,3,3,3,7-2[8:1]/3,3,7-4[8:1]/3,3,{4}7-1[8:1]/3-1[8:1],7b/3b,
{8}2/6-4[8:1],{16}7,8,{8}6b,2,7/3-5[8:1],{16}2,1,{8}3b,7,6v1[8:1],1<5[8:1],6,2,{4}3v8[8:1]*-1[8:1],3,
{8}6-1[8:1]/4,{16}7,5,{8}6b,2,3-8[8:1]/5,{16}2,4,{8}3b,7,6-1[8:1],1V74[8:1],6,2,{24}3-7[8:1]*-8[8:1],,,{8},{4}3,
{8}6-1[8:1]/3,{16}7,5,{8}6b,3,6/2-8[8:1],{16}3,4,{8}2b,7b,{24}73,6,5,{8}1b,{32}61,2,3,4,{8}7b,{24}73,6,5,{8}2b,{24}3,4,3,{8}4,2,18,7,56,{16}3,4,{4}3-8[8:1],35,{8}46,{4}7-5[8:1]/3-5[8:1],3b/7b,{16}2,8,1,8,
{8}2-5[8:1],{16}3,1,{8}2b,8,1/7-4[8:1],{16}6,8,{8}7b,3,2v5[8:1],5V38[8:1],2,6,{4}7-3[8:1]*-4[8:1],7,
{8}2-5[8:1],{16}3,1,{8}2b,7,6-1[8:1],{16}7,5,{8}6b,{4}3,
{8}2h[8:1]/4h[8:1],{16},{8}3h[8:1]/5h[8:1],{16},{8}7h[8:1]/8h[8:1],{16},{8}1h[8:1]/2h[8:1],{16},{8}4b/5b,4b/5b,{4},{8}6,56,{4},{8}3,34,{4},{8}27,{4}18,{32}1b/8b,27,36,45,{8},
{8}2v5[8:1],{16}3,1,{8}2,8,1/7-4[8:1],{16}6,8,{8}7,3,2h[8:1],{16}6,5,7,3,1,2,{4}8,{32}1b/8b,27,36,45,{8},
{8}2b,{16}3,1,{24}2b,3,4,{8}58,7b,{16}6,8,{24}7b,6,5,{8}41,2,{16}4,3,5,2,6,1,{4}7,{32}1b/8b,27,36,45,{8},
{16}2b,8,3,1,{24}2b,3,4,{8}58,{16}7b,1,6,8,{24}7b,6,5,{8}41,2,{16}4,3,5,2,6,1,{32}7b,6,5,4,{8}3,{32}1b,2,3,4,{8}5,7b/8b,{4},{8}2,34,{4},{8}6,{16}7,8,7b,1,{8}6,{16}2,1,{32}2b,3,4,5,{8},{4}8b/1h[4:1],{1}7b<1[1:1],{2}4h[2:1],6V48[2:1],{1}2h[2:1],
{8}8,{16}5,6,{8}5,{16}7-4[8:1],8,{8}6,7/2-8[8:1],3,2,
{24}7b,6,5,{16}4,{8}1b,{16}8,{8}2,{24}2b,3,4,{16}5,{8}8b,{16}1,{8}7,{24}7b,6,5,{16}4,{8}2b,{16}8,{8}1,{24}1b,2,3,{16}4,{8}7b,{16}1,{8}8,{32}8b,7,6,5,{16}4,{8}2b,{16}8,{8}1,{32}1b,2,3,4,{16}5,7b,8,6,
{12}3,3,5,2,2,4,{8}1,{4}37,{1}2p5[4:1]/6p1[4:1],
{4}8-3[8:1]/4-7[8:1],{1}8pp4[2:5]/4pp8[2:5],,,
{4}37,{16}6,5,{8}8,{4}1w5[8:1],1b,
