&title=赤と白薔薇の魔女
&artist=Dokuwaki
&first=0
&des=冰上梅露露
&lv_5=12+
&inote_5=(90.03){1},
{8}2>5[8:1],5,5,6-2[8:1],7,7,
{8}1<6[8:1],2,2,3h[4:1],4,5,
{16}6b<1[8:1],,1,1,2,,{16}3<6[8:1],,6,6,7,,
{16}8>3[8:1],,3,3,4,,{16}5<8[8:1],,1,1,2,,
{8}3b>8[8:1],8,8,7-3[8:1],6,6,
{8}4<7[8:1],3,3,2h[4:1],1,8,
{16}7b-3[8:1],,3,3,2,,1-5[8:1],,5,5,6,,
(87.93)
{16}7-3[8:1],,
(86.75)
{16}3,3,
(69.79)
{16}2,,
(68.1)
{16}1h[8:1],,
(63.91){16}7h[8:1],,
(58.9){16}6h[16:1],
(72.89){16}5,
(170.1){16}4-8[8:1],,,3,,,2,,,,2/1,,3,5,4,6,5-1[8:1],,,7,,,6,,,,
7/8,,6,4,5,3,4<7[8:1],,,3,,,2,,,,3/1,,2,1,3,8,4>1[8:1],,,8,,,7p3[8:1],,,,7/8,,
2,2,4b,3b,
5b<8[8:1],,,3,,,1>4[8:1],,,,1/8,,7,7,5,6,4>1[8:1],,,6,,,8<5[8:1],,,,1/8,,2,2,4,3,
5>2[8:1],,,7,,,1<6[8:1],,,,1/2,,3,3,4,2,5q1[16:1],,,5,,,2>5[8:1],,,,2/1,,7,7,8,6,
1>8[4:1],,,,,,,,,,
(220.04){8}2-5[8:1],,2/6p4[8:3],,4,3,2,,
8,8-4[8:1]/7-3[8:1],,8/7,,2,5,1,
{16}6,5,4,3,2,1,8,7,
6/5,,5,,4/7,,4,,
{8}3/8,8-5[8:1],,8-3[8:1],,6,6,,
{8}7-4[8:1],,7/3q5[8:3],,5,6,7,,
1,1-5[8:1]/2-6[8:1],,1/2,,4,3,5,
{16}2,3,4,5,6,7,8,1,5,6,7,8,
5,,5-8[8:1]*-2[8:1]
,,,,5,,,,{8}3,3-8[8:1]/7-4[8:1],,3b/7b,,
1-5[8:1],,7p4[8:3]/1,,4,3,2,,
1,1>4[8:1]/5<8[8:1],,1/5,,3,1,7,
{16}2,3,4,5,6,7,8,1,
2/4,,4,,5/3,,5,,
{8}6/4,4-1[8:1],,4-7[8:1],,8,1,2,
8-4[8:1]/3,,2q5[8:3]/8,,5,6,7,,
8,8<5[8:1]/4>1[8:1],,8/4,,6,8,2,
{16}7,6,5,4,3,2,1,8,4,3,2,1,8,7,6,5,
{8}4/8,8,7/3,3,2/6,6,1/5,1,
{4}8b>5[4:6]/6,6,6,6,6,6,6,6,
{8}6/4,,6,,6/5,,6/8,,
6,,6/3,,6/2,,6/1-4[8:1],,
7/1b,,7,,7/5h[4:1],,7,,
7/3h[4:1],,7,,7/1h[4:1],,7,1,
7/1>4[8:1],,7,,7,4,4>1[8:1]/7,,7,,
7/8-4[8:1],,7/8,,
{16}7,5,6,5,
{8}7-3[8:1],,7/8,,1-5[8:1],1,8,,
7,7,5,6,2,2,4,3,
2-6[8:1],,2/1,,8-4[8:1],8,1,,
2,2,4,3,7,7,{16}4,5,4,5,
{8}3-6[8:1],,3/2,,1<6[8:1],1,5>2[8:1],,
7,7,1,6,8,8,5,3,2/4-8[8:1],,4/5,,5-1[8:1]/7,5,6,,
2,2,8,3,{16}5,4,5,4,6,3,7,2,
{8}8>7[2:1],,,,1,,,,8>7[2:1],,7,,8,,,,
{8}1<2[2:1],,,5,5,,7,,
8<5[4:1],,5>2[4:1],,2,,1,1,
8b>7[2:1],,,5,5,,8,,
1>7[2:1],,7,,8,,,,
1<6[8:1],,3,2,1>4[8:1],,7,,
8pp2[8:1]*qq6[8:1],,8,,1/7,,
{16}6,5,6,5,
{8}7-2[8:1]/4,,7/4,,4/1-6[8:1],,4/1,,4/5<2[4:1],,2<5[4:1],2,,4,3,2,
1-4[8:1]/6,,1/6,,6/3-8[8:1],,6/3,,
6/7>4[4:1],,4>7[4:1],4,,7,6,5,
4/8-3[8:1],,7/8,,4-7[8:1]/8,,4/5,,6/8>5[4:1],,5>8[4:1],5,,7,7,6,
5-1[8:1],,5<4[4:1],,5b,,,,
6/1,6,2,1,{16}3,4,3,4,2,5,2,5,
{8}1-4[8:1]/6,,1/6,,7/5-2[8:1],,5/7,,8/1>6[4:1],,6>1[4:1],6,,8,7,6,
5-8[8:1]/2,,5/2,,1/7-4[8:1],,1/7,,
5/8>5[4:1],,5>8[4:1],5,,7,6,5,
1-4[8:1]/4,,1/5,,7/5-2[8:1],,8/5,,1<4[4:1]/3,,4<1[4:1],4,,2,3,4,5-2[8:1]/1,,5/7-4[8:1],,1-6[8:1]/7,,1b/8b,,5/7,5,4,3,
{16}1,2,1,2,8,3,7b,4b,
{16}6b,5,6,5,6,5,6,5,6,5,6,5,6,5,6,5,
6b,3,6,3,6,3,6,3,6,3,6,3,6,3,6,3,
6b,1,6,1,6,1,6,1,6,1,6,1,6,1,6,1,
6b,7,6,7,6,7,6,7,6,7,6,7,6,7,6,7,
5-1[8:1],,5,,2,,2,,8,7,6,5,3,2,1,8,6-2[8:1],,6,,3,,3,,1,8,7,6,
4,3,2,1,7-3[8:1],,7,,1,,1,,2,4,2,4,1,,1,,7,5,7,5,8,,8,,4,3,2,1,
4,5,6,7,
3b,8,3,8,3,8,3,8,3,8,3,8,3,8,3,8,
3b,6,3,6,3,6,3,6,3b,6,3,6,3,6,3,6,
3b,4,3,4,3b,4,3,4,3b,4,3,4,3b,4,3,4,
3b,2,3b,2,3b,2,3b,2,3b,2b,3b,2b,3b,2b,3b,2b,
4-8[8:1],,4,,7,,7,,1,2,3,4,6,7,8,1,3-7[8:1],,3,,6,,6,,8,1,2,3,5,6,7,8,
2-6[8:1],,2,,8,,8,,7-3[8:1],,7,,2,,2,,
{16}
1b,5,1,5,1,5,1,5,8b,4,8,4,8,4,8,4,
{1}7bpp2[1:3]/3bpp6[1:3],,,,
{8}1>4[8:1],,5,5,,7,7,5,6<1[8:1],,2,2,,3,3,4,
5>2[8:1],,6,6,,7,7,8,1-5[8:1],,8,8-4[8:1],,4w8[8:1],,,,
