&title=大地の閾を探して
&artist=かめりあ
&first=0.02
&des=12xl
&lv_5=14+
&inote_1=
&inote_5=(174){1},,,,,
{4},5<4[4:15],,,,,,,,,,,,,,,,
{16}6h[2:1],,,,1,2,3,4,5,,,,7,5,7,5,7h[4:1],,,1>7[2:1],1h[2:1],,,,,,,,,,,,
{16}3h[2:1],,,,8,7,6,5,4,,,,2,4,2,4,2h[4:1],,,8<2[2:1],8h[2:1],,,,,,,,,,,,
{16}6h[2:1],,,,1,2,3,4,5,,,,7,5,7,5,7h[4:1],,,1>5[8:3],1h[2:1],,,,,,,,,,,,
{16}4/3h[2:1],,,,1,8,7,6,5h[4:1],,,,8,1,2,3,5-1[8:1]/4h[4:1],,,,5,,,,84,,73,,62,,51,,
{4}4pp7[1:1]/8,,,7,7pp2[1:1],,,2,2pp5[1:1],,,5,5pp8[1:1],,,1,
{4}1pp4[1:1],,,4,4qq1[1:1],,,{16}8,7,6,5,{4}4pp7[1:1],,8>3[2:1],,,,,
{4}8,8<6[4:1],4h[4:1],,7,7<5[4:1],3h[4:1],,6,6>4[4:1],2h[4:1],,5,5>1[4:3],1h[4:1],,
{8}1<1[4:7],,4v1[8:3],4,4,,,,,1,1h[2:1],,,,,,,,
{8}8-6[4:1],,6-4[4:1],,4-2[4:1],,2-8[4:1],,8-4[2:1],,,4pp7[1:1],4qq1[1:1],,,,,,,,,,
{8},8,8-5[8:1],,,,4-1[8:1],,,,4pp7[2:1]/8pp3[2:1],,,,,,,,
{8}8qq5[2:1],2,3,4,5<8[4:1],,1,,1pp4[2:1],7,6,5,4>1[4:1],,8,,
{4}8-6[4:1],6-1[4:1],1-5[4:1],5-2[4:1],2<6[2:1]*p6[2:1],,,,
{8}1pp4[2:1],7,6,5,4>1[4:1],,8,,8qq5[2:1],2,3,4,5<8[4:1],,1,,
{4}2-5[8:1],7-4[8:1],3p1[2:1],,5<8[4:1],,1b,{8},81,72,63,
{4}5h[4:5]/4h[4:5],,,,,,,4w8[1:1]/5w1[1:1],,,,,
{8},43,2,1,8,7,{4}6/5-2[8:1],5-1[8:1],5V72[4:1],5,4-8[8:1],4V27[4:1],4,
{4}5>2[4:1],2<7[4:1],7<4[4:1],4<8[4:1],8-4[4:1],1>3[8:1],1-4[8:1],1,1-6[8:1],1/6<4[1:1],{8}5,5,5s1[2:1],,{4},,,
{4}8-6[8:1],8-3[8:1],8/3<8[1:1],{8}1,1,1s5[2:1],,{4},,
{8},4p1[2:1],,7,6,5,{4}4-7[8:1],4-8[8:1],4V27[4:1],4,5-1[8:1],5V72[4:1],5,
{4}4<7[4:1],7>2[4:1],2>5[4:1],5>1[4:1],1-5[4:1],8<6[8:1],8-5[8:1],8,8-3[8:1],8/3>5[1:1],{8}4,4,4z8[2:1],,{4},,,
{8}7-4[8:1]/6-1[8:1],,,,8/5>2[8:1],,6,7,8<5[8:1],,1,2,3>8[8:1],,4,5,6,,,
{8}7,6/5>2[2:1],,,1,2<7[2:1],,,6,7<4[2:1],,,3,4>8[4:3],,,8,7<4[2:1],,,,,,8-3[8:1],,6-1[8:1],,4-7[8:1],,2q5[8:3],,,,
{8}8>3[2:1],,,4,3<6[2:1],,,7,6<1[2:1],,,2,1>7[1:1],,,5,5h[2:1],,,,,,1-6[8:1],,7-4[8:1],,5p2[8:3],,,,,
{8}8,8<5[2:1],,,5,5>2[2:1],,,2,2<7[2:1],,,7,7<4[2:1],,,4,4>6[4:3],,,,,,4-2[8:1],,4-6[8:1],,4>6[8:3],,,,,,
{8}84,,,73,7h[4:1]/3h[4:1],,,62,6h[4:1]/2h[4:1],,,51,5h[4:1]/1h[4:1],,,48,5v8[8:1]/1v4[8:1],,,,,,
{32}72,63,5-8[8:1]/4-1[8:1],,{8},,,,,,,{16}81,,81,,8-4[8:1]/1-5[8:1],,,,{4},,7-3[8:1]/2-6[8:1],,{16}54,,5-8[8:1]/4-1[8:1],,54,,,,{4},
{32}8qq5[1:1]/1pp4[1:1],72,63,54,{8},{4},,,,,7,7-3[1:1],7h[1:1],,,,,,2,2qq6[1:4],2h[2:3],,,,,,,,{16}4,,,,4,,4,,,,4,,,,4,4,4,,,,4,,4,,,,4,,4,,,,
{2}5h[4:1],6h[4:1],7h[4:1],81,4h[4:1],3h[4:1],2h[4:1],{4}8b-3[8:1]/1b-6[8:1],81,
{16}7b-4[8:1],,,8,,,1,,2b-7[8:1],,,3,,,4,,5b-2[8:1],,,6,,,7,,8b-5[8:1],,,1,,,2,,
{16}3,4,3,4,3,2,1,8,6,5,6,5,6,7,8,1,5,4,3,2,1p5[8:1]/5p1[8:1],8,7,6,{4}15,,
{32}62,73,8h[16:3]/4h[16:3],,{16},,,,7h[8:1]/5h[8:1],,,7h[8:1]/3h[8:1],,,71,,7,8,7,8,7<4[8:1],,,8,7,,2>5[8:1],,,1,2,,,,
{32}84,73,6h[16:3]/2h[16:3],,{16},,,,3h[8:1]/5h[8:1],,,3h[8:1]/7h[8:1],,,31,,,,2,1,3,1,2-4[8:1]*-5[8:1],1,4,1,2-7[8:1]*-8[8:1],,,,,,,,
{32}6h[16:6]/2h[16:4],,,,{16},,,,{32}2v5[8:1],,,,,,5V31[8:1],,,,,,,,,,{16},,7,8,7<4[8:1],,,8,7,,2>5[8:1],,,1,2,,,,
{32}4h[16:3]/8h[16:3],,,,{16},,,,{16}2<7[16:3],,,7<4[16:3],,,4>2[8:1],,,,8,7,6,5,4,3,{24}7,6,5,4,3,2,{8}8b/1b,,,
{32}37,26,1h[16:3]/5h[16:3],,{16},,,,2h[8:1]/4h[8:1],,,2h[8:1]/6h[8:1],,,28,,2,1,2,1,2>5[8:1],,,1,2,,7<4[8:1],,,8,7,,,,
{32}15,26,3h[16:3]/7h[16:3],,{16},,,,6h[8:1]/4h[8:1],,,6h[8:1]/2h[8:1],,,68,,,,7,8,6,8,7-5[8:1]*-4[8:1],8,5,8,7-2[8:1]*-1[8:1],,,,,,,,
{4}7qq4[2:3]/3h[4:1],{16},,,1,1,1,1,,{4},,8>3[4:1],8,,{4}3qq8[2:3]/7h[4:1],{16},,,5,5,5,5,,{4},,4<7[4:1],4,,
{8}1h[1:1],,,,,,,5,5h[1:1],,,,,,,7,7h[2:1],,,4,4h[2:1],,,2,2h[2:1],,,7,7h[2:1],,,4,{4}5b<4[1:2],,,,,,,,5<4[2:3],,,,,,,
{16},,6,,5b/4b,,,4,5,,5,,53,,,2,5,,5,,51,,,8,5,,5,,57,,,6,5,,5,,54,,4,5,4,,4,,64,,4,7,4,,4,,84,,4,1,4,,4,,24,,4,3,4,,45,,
{16}3b,6,4,5,3,6,4,5,{24}2,3,4,7,6,5,8,7,6,5,4,3,{16}8b,1,7,2,8,1,7,2,{24}8,7,6,2,3,4,1,2,3,4,5,6,{8}1b-5[8:1],8-6[8:1],1-3[8:1],8-4[8:1],1,8,{32}1,8,7,6,5,4,3,2,
{4}1bs5[2:1]/5b,,5s1[8:1],,
{4}7h[8:1]/3h[8:1],{16}5,,64,64,64,,,,1,,82,82,8-4[8:1],1-3[8:1],,,8,1,,,1-5[8:1],8,,8,1,,,,
{4}6h[8:1]/2h[8:1],{16}4,,53,53,53,,,,8,,71,71,1-5[8:1],8,,,1-3[8:1]/8,,8-4[8:1],8,1-5[8:1],,8,,1,,,,
{4}7h[8:1]/3h[8:1],{8}1<1[4:1],6h[2:1],1,,,3h[2:1],{32}8,1,2,,4,5,6,7,{8}8,6h[2:1],{32}1,8,7,,5,4,3,2,{8}1w5[8:1],,
{4}1,,{16}2b-5[8:1],,,1,,,8,,7b-2[8:1],,,6,,,5,,4b<7[8:1],,,,{32}8,1,2,3,,,,,
{4}8h[8:1],{16}4,,35,3h[16:1]/5h[16:1],,,8,,71,,1-4[8:1],7,,7,1,,7<4[8:1],1,,1,7b>2[8:1],,3b,,7b,,,,
{16}4b-8[8:1],,,,4<7[8:1],,3,3,,,1,,2,,1-6[8:1],2,,2,1,,2<7[8:1],,,,2b>5[8:1],,6b,,2b,,,,
{4}8h[8:1],{32}1,2,3,4,1,8,7,6,{4}5b<8[8:1],{32}1,2,3,4,1,2,3,4,{4}5b<8[8:1],{32}1,2,3,4,1,2,3,4,{4}5b<8[8:1],,
{32}1,2,3,4,{16}5h[4:1],,,,,,7h[8:1],,,6h[8:1],,,5,,2h[8:1],,,3h[8:1],,,4h[8:1],,5,6,7,8,1-5[8:1],,,,
{4}1bqq6[4:5]*pp4[4:5],,,,,,,,5qq2[2:1]*pp8[2:1],,,,
{16}8h[8:1],,,7h[8:1]/5h[8:1],,,42,,
{24}6/2b,3,4,5,6,7,48,51,62,73,84,15,
{1}2bq4[2:13]/6bq8[2:13],,,,,,,
{16},,,2pp4[16:3],,,4>1[16:3],,,1<2[16:7],,,,,,,
{8}2pp6[2:1],1,8,7,6>2[8:3],,8h[8:1],,2qq6[2:1],1,8,7,6<2[8:3],,5h[8:1],,
{4}5V74[2:1],5,4-8[4:1],8-3[4:1],1w5[2:1],,,,
{8}7qq3[2:1],8,1,2,3<7[8:3],,1h[8:1],,7pp3[2:1],8,1,2,3>7[8:3],,4h[8:1],,
{4}4p6[4:1],6p1[4:1],5<8[8:2],,1b,,8<5[2:1],{8},1,2,3,
{4}4h[4:5],,,,,,,1w5[1:1]/8w4[1:1],,,,,,2-6[8:1],
{4},,,,{8},{24}3,4,5pp1[1:1],,,,{8},{4},,,,,,,{24}8>6[1:1],7,6,,,,{4},,,,,,
{12},,2,4,3,7q2[4:3]*p4[4:3],{4},,,,,{24}7,6,5h[2:1],,,,{4},{24}2,3,4h[2:1],,,,{4},{24}8,7,6h[4:1],,,,{4},
{8}4,,4,,4,,{24}48,7,6pp1[2:1],4,,,4,,,,,,{8}4,,4,,4,4,4,,4,,4,,{16}4/8,1,2,3qq8[4:3],{8}4,,4,,4,,4,,4,,4,4,4h[1:1],,,{16},5,6,7,8,,,,,,
{8}8-6[8:1],,1-5[8:1],,8-3[8:1],,4>1[8:1],4,4,,7<4[8:1]/8,78,78,,3/2<4[4:1],32,32,,,
{8}7,6/5V72[2:1],,,2,2V47[2:1],,,7,7V14[2:1],,,4,4V61[2:1],,,1,1V36[2:1],,,,,,8-3[8:1],,6-1[8:1],,4-7[8:1],,2q5[8:3],,,,
{8}8p2[2:1],,,2,2p4[2:1],,,4,4p6[2:1],,,6,6>2[2:1],,,2,2<6[2:1],,,,,,1-6[8:1],,7-4[8:1],,5p2[8:3],,,,,
{8}8,8q5[2:1],,,5,5q2[2:1],,,2,2q7[2:1],,,7,7q4[2:1],,,4,4<8[2:1],,,,,,4-2[8:1],,4-6[8:1],,4>5[8:3]*p5[8:3],,,,,,
{8}84,,,73,7h[4:1]/3h[4:1],,,62,6h[4:1]/2h[4:1],,,51,5h[4:1]/1h[4:1],,,48,5v8[8:1]/1v4[8:1],,,,,,
{32}72,63,5-8[8:1]/4-1[8:1],,{8},,,,,,,{16}81,,81,,8-4[8:1]/1-5[8:1],,,,{4},,7-3[8:1]/2-6[8:1],,{16}54,,5-8[8:1]/4-1[8:1],,54,,,,{4},
{4}5h[8:1]/4h[8:1],3,2,1,8,7,6,5,54,54,34,34,56,57,43,42,{8}54,5,3,3,6,6,2,2,43,5,6,7,81,2,3,4,65,6,43,3,65,7,43,2,81,8,72,2
,36,6,54,4,
{16}7b/2b,,3,4,3,,34,,72,,6,5,6,,65,,72,,1,8,1,,18,,72,,8,1,8,,18,,7b/2b,,3,4,3,,72,,81,,6,5,6,,72,,54,,2,1,2,,63,,54,,7,8,7,,63,,
{16}2-5[16:1],,,7-3[16:1],,,4b-8[16:1],,6-2[16:1],,,1-5[16:1],,,7b-4[16:1],,3-8[16:1],,,6-2[16:1],,,1b-5[16:1],,7-3[16:1],,,4h[16:3],,,8h[8:1],,
{16}4,8,3,7,2,6,1,5,{24}1b,2,3,7b,6,5,8b,7,6,5,4,3,{16}26,1,8,7,2-6[8:1]/6,15,84,73,{4}2/6s2[8:1]*z2[8:1],,
{16}8b/4b,,,,84,7,6,5,4h[8:1]/1>4[16:3],,,,4-8[8:1]/1,5,6,7,8<2[4:1],,,6,6h[8:1],,,,6,5,4,3,2,1,8,7,
{16}6b/2b,,,,62,7,8,1,2h[8:1]/5>2[16:3],,,,2-6[8:1]/5,1,8,7,6<4[4:1],,,8,8h[8:1],,,,8,1,2,3,4,5,6,7,
{16}8b<4[4:1]/4b,,13,,84,3,2,1,8>4[16:3],,,,4-8[8:1]/8,5,6,7,8<2[4:1],,,6,6h[8:1],,,,6,5,4,3,2,1,8,7,
{16}6b/2b,,,,8-4[8:1],7,6,5,84,,,,1-5[8:1],2,3,4,5-2[8:1]*-8[8:1]/1,,,,,,,,8w4[8:1],,71,,8,,,,
{16}2b/6b,,,,26,3,4,5,6h[8:1]/1<6[16:3],,,,6-2[8:1]/1,5,4,3,2>8[4:1],,,4,4h[8:1],,,,4,5,6,7,8,1,2,3,
{16}4b/8b,,,,48,3,2,1,8h[8:1]/5<8[16:3],,,,8-4[8:1]/5,1,2,3,4>6[4:1],,,2,2h[8:1],,,,2,1,8,7,6,5,4,3,
{16}2b>6[4:1]/6b,,17,,26,7,8,1,2<7[16:3],,,,6-2[8:1]/2,5,4,3,2>8[4:1],,,4,4h[8:1],,,,4,5,6,7,8,1,2,3,
{16}8b/4b,,,,8-3[8:1]/4-7[8:1],73,62,51,48,,,,8-4[8:1]/4,73,62,51,4>1[4:1]/8b,,5b,,6b,,7b,,8-5[8:1]*-3[8:1],,,,8z4[8:1]*s4[8:1],,,,
{16}8,,,,8-4[8:1],,7,,8/2>5[4:1],,1,,25,6,7,8,1-4[8:1],,,,7/1-6[8:1],,8,,1-4[8:1]/3,,2,,1-7[8:1]/7-3[8:1],,,,
{16}17,,,,1-5[8:1],,2,,1/7<4[4:1],,8,,74,3,2,1,8-6[8:1],,,,8-2[8:1],,3,,8-4[8:1],,5,,8w4[8:1],,,,
{16}8,,,,,,7,8,7,2h[64:1],1h[64:1],2h[64:1],36,36,,81,7-3[8:1]/2,,,1,1b,,,,1,1,1,1,1b-4[8:1],,28,,1qq6[4:1],,,,
{16}5,4,3,2,1pp4[4:1],,,,5,6,7,8,1,,,,{24}4,3,2,1,8,7,6,5,{6}4V28[4:1]/8z4[4:1],{4},
{16},,,,1,,1,,6,,6,,2-5[8:1],1,2,3,2<7[8:1],,,,2,,6>3[8:1],,,,6,,2-7[8:1]*-5[8:1],,,,
{16}2,,,,6,,6,,3,,3,,5,6,7,8,2-6[8:1],1,,,2>5[8:1],1,,1,2b<7[8:1],,6b,,2b,,,,
{16}5h[4:3],,,,,,1,,,6,,,3,,5h[4:1]/3h[4:3],,,,,,5,,,2,,,1h[8:1],,7h[8:1],,5h[8:1],,4h[4:3],,,,,,6,,,3,,,8,,5/8h[2:1],,,1,,,6,,3,,{24}8/3,1,2,3,4,5,8,1,2,3,4,5,
{16}6v1[8:1]/8b,,,8,,8,8,,,,,,,,2,,3/4bv7[8:1],,,3,,3,3,,3,3,,,,,
{16}8b/1,,7b<4[2:1]/2,,,3,,4,4,,4>1[2:1],,,,,,1,,1<6[2:1],,,5,,6,6,,6>3[2:1],6,,,,,3,,3qq8[1:1],,,8,,8,8,,,,,,,,,,4,,,4,,4,4,,4,4,,,,,,,
{16}6-2[8:1]/8b,,,8,,8,8,,3-7[8:1]/1b,,,1,,1,1,,2,7,3,6,4,5,4,5,3,6,2,7,18,,,,
{8}1-6[8:1]/8-3[8:1],,,,8-4[8:1],2,3,3,5-1[8:1],3,2,2,8-4[8:1],2,3,,
{8}3-8[8:1]/6-1[8:1],,,,4-8[8:1],6h[16:1],7h[16:1],7h[16:1],1-5[8:1],7h[16:1],6h[16:1],6h[16:1],4-8[8:1],6h[16:1],7h[16:1],,
{8}7-4[8:1]/2-5[8:1],,,,7-3[8:1],4,4,4,1-5[8:1],2,2,2,7-3[8:1],4,4,,
{8}4-7[8:1]/5-2[8:1],,,,3-7[8:1],8h[16:1],8h[16:1],8h[16:1],5-1[8:1],6h[16:1],6h[16:1],6h[16:1],3-7[8:1],,
{8}6,,6pp1[4:6],,,{16}4,4,4,,{8},,,,5,5>2[4:1],,5,,,,3p8[4:3],,,{16}5,5,5,,{8},,,,5,4<7[8:1]/8>3[8:1],15,8v6[8:1]/4v2[8:1],,,,
{8}51,26,37,84,74,63,52,41,42,53,64,75,67,78,81,12,
{16}8,7,6,5,{24}8,7,6,5,4,3,{32}8,7,6,5,4,3,2,1,84,3,2,1,8,7,6,5,
{4}8bs4[4:1]*z4[4:1]/4b,,,
{8}8-5[8:1],,8-3[8:1]/2,,6/8-5[8:1],,84,,4-1[8:1],,4-7[8:1]/6,,2/4-1[8:1],,48,,
{8}8-5[8:1],,8-3[8:1],1,8-5[8:1],7,8-3[8:1],1,8-5[8:1],7,8-3[8:1],2,8-5[8:1],6,8-3[8:1],2,8-4[8:1],6,
{8}8/4<1[2:1],,1,1,1>8[4:3]*s5[8:3],,,,,,,,5-2[8:1],,5-8[8:1]/7,,5/1>6[2:1],,6,6,6<4[8:5]*v1[4:1],,,,,,,5h[2:1],,7,8-4[8:1],1,
{8}8-6[8:1]/2-6[8:1],,8-4[8:1]/2-4[8:1],,82,,1-5[8:1]/7,8,7-3[8:1]/1-3[8:1],,7-5[8:1]/1-5[8:1],,71,,
{8}2-5[8:1],1,2/5>2[4:1],,2V46[4:1],,6>1[4:1],,1-4[8:1],,7b<3[4:1],,3V58[4:1],,8V63[4:1],,3<8[4:1],,8>8[1:1],,4,4,4h[2:1],,,,,,,
{8}1,1V35[4:1],,,,1b>5[4:1],,7/1b,8,1bV36[4:1],,7/1b,8,1b>6[4:1],,7/1b,8,1bV37[4:1],,7/1b,,1b-6[8:1],,
{8}1>4[8:1]/5<8[8:1],,15,,2-4[8:1]/1-5[8:1],83,2-7[8:1]/1,,2/6-3[8:1],,6/4-8[8:1],,1,1,
{16}7b,6,5,4,3,2,1,8,7/5b,4,3,2,1,8,7,6,5/3b,2,1,8,7,6,5,4,3/1b,8,7,6,5,4,3,2,
{16}8b/1b,,,,,8-5[8:1],8,8,8h[8:1],,,,,2-6[8:1],2,2,2h[8:1],,,,,4-1[8:1],4,4,4h[8:1],,,,,7-3[8:1],7,7,
{16}7h[8:1],,,,,1<6[8:1],1,1,1h[8:1],,,,,4>1[8:1],4,4,4h[8:1],,,,,7<4[8:1],7,7,7h[8:1],,,,
{8}1-6[8:1],,1/7-4[8:1],,7/5-2[8:1],,15,,8-3[8:1],8,2-5[8:1],,2/4-7[8:1],,4/8-5[8:1],,82,,
{16}7b,6,5,4,3,2,1,8,7/5b,4,3,2,1,8,7,6,5/3b,2,1,8,7,6,5,4,3/1b,8,7,6,5,4,3,2,
{16}8bv3[8:1],8,8,8h[8:1],,,,,2v5[8:1],2,2,2h[8:1],,,,,4v7[8:1],4,4,4h[8:1],,,,,
{8}8w4[8:1],,8,,62,,7<4[8:1],8,7b/1h[8:1],,8<4[8:1],1,8b/2h[8:1],,1b<3[4:1],2b,1b/3b>5[4:1],,,
{16}4,,4b>1[8:1],,,,5,,6,,7b,8,7,8,7,1,7,2,7,3,7,4,7b,4,5,4,6b,4,5,4,8bV63[2:1],4,5,4,8b,,,,,,,,,,,,
{8}1-6[8:1],,7-4[8:1],,5p2[8:3],,,,,
{16}5,,5b<8[8:1],,,,4,,3,,2b,1,2,1,2,8,2,7,2,6,2,5,2b,5,4,5,3b,5,4,5,1bV36[2:1],5,4,5,1b,,,,,,,,,,,,
{8}8-5[8:1],,8-3[8:1]/2,,8<3[4:1]*p3[4:1]/6,,,,,
{16}8,,8b<5[8:1],,,,1,,2,,3b,4,3,4,3,5,3,6,3,7,3,8,3b,4,5,6,7,8,1,2,3V16[2:1]/7b,6,5,4,3b,,,,,,,,,,,,
{4}1<6[8:1]*-7[8:1],1>4[8:1]*-3[8:1],1-5[8:1],1w5[8:1],1b,
{8}7<4[2:1]/3,,,4,4>1[2:1],,,1,1-6[4:1],,,2,{16}2,4,,,18,,7,5,
{8}4v1[8:1]/8v5[8:1],,,,,,
{32}72,63,5-8[8:1]/4-1[8:1],,{8},,,,,,,{16}81,,81,,8-4[8:1]/1-5[8:1],,,,{4},,7-3[8:1]/2-6[8:1],,{16}54,,5-8[8:1]/4-1[8:1],,54,,,,,,,,
{16}4v7[8:1]/2b,,,1,,1,1,,,,,,,,7,,6/5bv2[8:1],,,6,,6,6,,6,6,,,,,
{16}1b/8,,2b>5[2:1]/7,,,6,,5,5,,5<8[2:1],,,,,,8,,8>3[2:1],,,4,,3,3,,3<6[2:1],3,,,,,6,,6pp1[1:1],,,1,,1,1,,,,,,,,,,5,,,5,,5,5,,5,5,,,,,,,
{16}3-7[8:1]/1b,,,1,,1,1,,6-2[8:1]/8b,,,8,,8,8,,7,6,5,4,2,3,4,5,{24}8,7,6,2,3,4,1,2,3,4,5,6,
{32}1,2,3,4,7,6,5,4,8,7,6,5,2,3,4,5,1b,2,3,4,5,6,7,8,
{4}1bq5[8:1]/5bq1[8:1],{1}1bq3[1:7]/5bq7[1:7],,,,,,,,
{16}6h[2:1],,,,1,2,3,4,5,,,,7,5,7,5,7h[4:1],,,1>7[2:1],1h[2:1],,,,,,,,,,,,
{16}3h[2:1],,,,8,7,6,5,4,,,,2,4,2,4,2h[4:1],,,8<2[2:1],8h[2:1],,,,,,,,,,,,
{16}6h[2:1],,,,1,2,3,4,5,,,,7,5,7,5,7h[4:1],,,1>5[8:3],1h[2:1],,,,,,,,,,,,
{16}4/3h[2:1],,,,1,8,7,6,5h[4:1],,,,8,1,2,3,5-1[8:1]/4h[4:1],,,,5,,,,84,,73,,62,,51,,
{16}8<8[1:6]/4h[4:6],,,,,,,,,,,,,,,,,,,,,,,,,,,,,,,,2,,,,2,,2,,,,2,,,,1,2,3,,,,2,,2,,,,2,,2,,,,
{16}6,,,,6,,6,,,,6,,,,7,6,5,,,,6,,6,,,,6,,6,,,,5,,,,5,,5,,,,5,,,,7,6,5h[8:1]/2h[8:1],,,,7h[8:1]/4h[8:1],,,,1-5[8:1],8,2,7,1>1[1:3],,
