&title=オペレート・ミー
&artist=黑魔
&first=0.13
&des=8778
&lv_5=14+
&des_5=8778
&inote_5=
(98){4},{8},,,,,,3h[8:3],
4,5,6,4h[8:3],5,6,7,
5h[8:3],6,7,8,2h[4:1],3,4,5h[2:1],
6,7,8,1,2h[8:1],6,3h[8:1],7,
4h[8:1],8,5,1>6[16:15],{2}C,
{16},,,,,,,,,C,,,,,,,(255)4x,
5x,4x,5x,4x,5x,4x,5x,4x,5x,4x,5x,4x,5x,4x,5x,
3b,5x,{8}4xh[8:1],{16},,3b,5x,{4}4xh[8:1],{16}3b,5x,{8}4xh,
{16}4x,5x,4x,5x,4x,5x,4x,5x,4x,5x,4x,5x,4x,5x,4x,5x,
3b,5x,{8}4xh[8:1],{16},,3b,5x,{4}C,E1,
{16}1x,8x,1x,8x,1x,8x,1x,8x,1x,8x,1x,8x,1x,8x,1x,8x,
2b,8x,{8}1xh[8:1],{16},,2b,8x,{4}1xh[8:1],{16}2b,8x,{8}1xh,
{16}1x,8x,1x,8x,1x,8x,1x,8x,1x,8x,1x,8x,1x,8x,1x,8x,
2b,8x,{8}1xh[8:1],{16},,2b,8x,{4}1h[4:1],C,
{8}6,3,6,4,8,3,6,4,
7,2,5,4,6,1,7,3,
6,2,8,4,7,1,5,3,
7,4,5,1,4,8,6,2,
{24}8/5,7,6,5,,,{8}1,{24}1/4,2,3,{8}4,8,{24}8/5,7,6,5,,,{8}1,
{24}1/4,2,3,{8}4,8,{24}8/5,7,6,5,,,{8}4,5,
{24}8b/2b,7/3,6/4,5,,,,,,7b/1b,6/2,5/3,{4}4,{24}1bs5[0.2353##0.7059]/8bs4[0.2353##0.7059],2/7,3/6,4/5,,,(63.75){4},
(255)6h[8:11],{8},,,5,
4,3,{4}2,{8}1,2,,,,,{4}3h[4:7],
{8},,,4,
5,6,{4}7,8,8,
1V75[4:3],1,,5>1[2:1],
,1<5[2:1],,5>1[2:1],
,1<1[1:1],{8}3,3h[8:13],,,,,,,,,{4}8,
7,6h[8:3],{8},5h[8:3],,,{4}4h[4:1],
3h[2:1],,2h[2:1],
,1h[8:3],{8},8h[8:3],,,{4}7h[4:1],
6h[2:1],,3h[2:1],
{8},,8,1,7,2,6,3,
5,4,5,4,6,3,7,2,
8,1,{48}8bqq5[8:11]/1bpp4[8:11],D8/D2,A7/A2,D7/D3,A6/A3,D6/D4,{1},{4},,,{16},,{4}4/6h[4:1],
4,{8}6h[4:1],5,
4,3,{4}2/6h[4:1],{8}1,2h[8:1],{4}6h[4:1],
2,5/3h[4:1],5,{8}3h[4:1],4,
5,6,{4}7/3h[4:1],7,8/3h[4:1],
1V75[4:3],1,C,5>1[2:1],
C,1<5[2:1],C,5>1[2:1],
C,1<1[8:9],{8}3,3h[8:7],{16},,,,,,,,,,,,,,,,8,
7,6,5,
4,3,2,1,{4}8/4h[8:1],7/4h[8:1],6/4h[8:1],
5/4h[8:1],3/4h[8:1],2/4h[8:1],1/4h[8:1],
8/C/B5/B4,2/7h[8:1],3/7h[8:1],4/7h[8:1],
5/7h[8:1],6/7h[8:1],8/7h[8:1],1/C/B5/B4,
{16}1,1,1,1,{4}1h[2:1],,3h[2:1],
,5h[2:1],,7h[2:1],
{16},,,,3,4,5,6,7,8,1,2,3,4,5,6,
7,8,1,2,(127.5){4}7/3h[4:1],Cf,(255){16}3,4,{8}2h[8:1],
{16},,6,5,{4}7h[8:1],{16},,2,1,{4}3h[8:1],
{16},,7,8,{4}6h[8:1],3b,{16}2-4[8:1],1,{8}3,
2,{16}7-5[8:1],8,{8}6,7,{16},,2>5[8:1],1,{8}3,2,
{16},,7-4[8:1],6,{8}8,7,{4}3b,{8}2/6,{16}3,4,
{8}5,6/2,{16}7,8,{8}1,,3/7,{16}4,5,{8}6,
7/3,{16}8,1,{4}2,7b/3b,6bh[8:1]/2bh[8:1],
(127.5),{24}5-1[4:1]/1-5[4:1],6/2,7/3,8/4,,,,,,,,,,,,(255){8}6h[8:1]/4h[8:1],
,,{4}7h[8:1]/3h[8:1],{8},8h[8:3]/2h[8:1],{16},,1,2,
3,4,5,6,7,8,{8}1,,2-4[8:1],8,2,
,,6pp4[8:5],7,,2-5[16:3],,2,
,,,,,3,5,3h[8:1]/5h[8:1],
,,{4}2h[8:1]/6h[8:1],{8},7h[8:1]/1h[16:7],{16},,8,7,
6,5,4,3,2,1,{8}8,,7-5[8:1],1,7,
,,3qq5[8:5],2,,7-4[16:3],,7,
,,,,,6,4,6h[8:1]/4h[8:1],
,,{4}7h[8:1]/3h[8:1],{8},2h[8:1]/8h[8:1],{16},,1,1,
1,1,1,1,1,1,{8}1,,8-4[16:3]/2-5[16:3],2/8,2/8,
,,4qq6[8:5],3,,5-8[16:3],,5,
,,,,,3,5,3h[8:1]/5h[8:1],
,,{4}2h[8:1]/6h[8:1],{8},1h[8:1]/7h[8:1],{16},,8,8,
8,8,8,8,8,8,{8}8,,1-5[16:3]/7-4[16:3],7/1,7/1,
,,5pp3[8:5],6,,4-1[16:3],,4,
,,,Ch[4:1],,,,1/2,
,3/2,,4/3,,4/5,,6/5,
,7/6,,7/8,,8/1,,(382.5)4h[8:1]/2h[8:1],
,5h[8:1]/7h[8:1],,8h[8:1]/1h[8:1],,3h[8:1]/5h[8:1],,4h[8:1]/6h[8:1],
,7h[8:1]/2h[8:1],,6bh[8:1]/3bh[8:1],,8bh[8:1]/4bh[8:1],,5bh[8:1]/3bh[8:1],
,4bh[8:1]/2bh[8:1],,8bh[8:1]/6bh[8:1],,4bh[8:1]/5bh[8:1],,(127.5)1bh/Cf,
{64},,,,,,,,E6,B5,B4,E4,{4},{16},{64}B7/B2,B6/B3,{4},{16},{32},{8}B7/E7/B6/B2/E3/B3/Ch[2:3],
,,,,,,,,,,,,,,,4w8[8:29],
{1},,,{4},,,{8},3h[8:3],
5,6,7,6h[8:3],3,4,1,4h[8:3],
5,6,7,5h[8:3],3,4,1,7h[4:1],
,5h[4:1],,3h[4:1],,1h[4:1],,8h[8:3],
{16},5,,,{8}3h[8:9],Ch[1:1],,,,,,,,,,,,5w1[8:1],
,5,{64},,,,,,,,(63.75)1,2,3,4,5,6,7,8,1,2,3,4,5,6,7,8,1,2,3,4,5,6,7,8,1,2,3,4,5,6,7,8,1,2,3,4,5,6,7,8,
1,2,3,4,5,6,7,8,(95.63)1h,2,3,4,5-1[0.3074##0.1663],6,7,8,1,2,3,4,(63.75){16}5b,,(255)5/2,,,,3,4,3,,5/2,
,3,4,3,,5/2,,3/6,,,,4,5,4,,3/6,
,4,5,4,,3/6,,4/7,,6,5,6,,4/7,,6,
5,6,,4/7,,3/6,,1,2,3,4,5,6,7,8,1,
2,3,4,5,(63.75){24},(255){48},6,,,,5,,,,6,,,,{16}7,{48},6,,,,5,,,,{16}6,{48},7,,,,6,
,,,{16}5,,,,3,{48},4,,,,3,,,,{16}2,{48},3,,,,4,,,,{16}3,{48},2,,,,3,
,,,{16}4,,,,6,{48},5,,,,6,,,,{16}5,{48},7,,,,5,,,,{16}6,{48},4,,,,7,
,,,{16}5,{64},,,,,,,,,,,3,{192},,,,,,,,,,,,{24}4,,3,,4,,2,,4,,3,,5,,2,
,4,{48},,,,,,,,,,,(382.5){16}7,,3,,5,,1,,7h[4:1],,,,3,
,7,,1,,5,,3h[4:1],,,,6,,5,
,7,,4,,6h[4:1],,,,3,,4,,2,,5,
,3,{32},,,,,(255),{16}1/5,,,,2/6,3/7,4/8,,,,3/7,
2/6,5v8[16:3]/1v4[16:3],,,,1/5,,,,,,,,3,,5,
,4,,5,,3,,5,,4,,5,,3,,5,
,4,,5,{48},,,3,,4,,5,,6,,7,,8,,1,,2,,3,,4,,5,,6,,7,,8,,1,,2,,3,
,4,,5w1[8:1],,6,,7,,8,,1,,2,,3,,4,,B2/Cf/B1/B8/B3/B4/B7/B6/B5,{4},{16},,{64},,,{192},(63.75){32},{64},,,,,(127.5),{32}E4/C,
,,,E5,,,,E6,,,,E7,,,,E8/E3,,,,E1,,,,E2,,,,E3,,,,E4/E7,
,,,E5,,,,E6,,,,E7,,,,E1/E6,,,,E2,,,,E3,,,,E4/E8,,,,E5/E2,
,,,E6,,,,E7,,,,E8,,,,E1/E7,,,,E2,,,,E3/E1,,,,E4,,,,E5/E3,
,,,E6,,,,E7,,,,1>6[0.1129##0.9082]*v6[0.1129##0.9082],,,,,,,,,,,,,,,,,,,,3h[8:3],
,,,4,,,,5,,,,6,,,,4h[8:3],,,,5,,,,6,,,,7,,,,5h[8:3],
,,,6,,,,7,,,,8,,,,2h[4:1],,,,3,,,,4,,,,5h[2:1],,,,6,
,,,7,,,,8,,,,1,,,,2h[8:1],,,,6h[8:1],,,,3h[8:1],,,,7h[400:49],,,,(255)4h[8:1],
,,,,,,,5,,,,4,,,,6,,,,3,,,,6,,,,3,,,,7,
,,,2,,,,7,,,,2,,,,8bh[16:1],,,,1bh[16:1],,,,8bh[16:1],,,,1bh[16:1],,,,2bh,
,3,,4,,5,,6,,7,,8,,1,,2,,3,,4,,5,,6,,7,,8,,1,,2/6bh,
,5,,4,,3,,2,,1,,8,,7,,6,,5,,4,,3,,2,,1,,8,,7,,6/4bh,
,5,,6,,7,,8,,1,,2,,3,,4,,5,,6,,7,,8,,1,,2,,3,,4/8bh,
,7,,6,,5,,4,,3,,2,,1,,8,,7,,6,,5,,4,,3,,2,,1,,8b/3,
,,{16}7,{32}4,,,6,,,{16}5,{32},,,1b/6,,,{16}2,{32}5,,,3,,,{16}4,{48},,,,{24}7b,
6,5,{12}4,{24},2b,3,4,{96}5,,,,,,,,,,,,,1b/5b,,,{32}8/4,7/3,6/2,5/1,,,5bh[#0.2646942],(63.75),(510){4},
{12}1b,2,3,4,5,6,7,8,1,2,3,4,
5,6,7,8,1,2,3,4,5,6,7,8,
1,2,3,4,5,6,7,8,1,2,3,4,
5,6,7,8,1,2,3,4,5,6,7,8,
1,2,3,4,5,6,7,8,1,2,3,4,
5,6,7,8,1,2,3,4,5,6,7,8,
1,2,3,4,5,6,7,8,1,2,3,4,
5,6,7,8,1,2,3,4,5,6,7,8,
(127.5){1}1b/B4/B5/B6/B2/B1/B8/B3/B7/Cf,
E
