&title=夜に駆ける・改
&artist=imod jp
&first=1.85
&des=翡翠・改
&des_7=翡翠・改
&wholebpm=130
&demo_seek=76.5
&demo_len=30.0
&lv_1=音
&lv_7=改
&inote_1=(130)
{4}
1,1,1,1,1,1,1,1,
1,1,1,1,1,1,1,1,
1,1,1,1,1,1,1,1,
1,1,1,1,1,1,1,1,
1b,E,
&inote_7=(130)
{8}
3h[8:1],7h[8:1],
{16}
1pp4[21.6666667#24:1],,,2,,,3h[2:1],,8qq5[32.5#16:1],,7,,6h[8:1],,,,
1$/8$,,2-4[520#4:1]/7-5[520#4:1],2/7,,1/8,1/8,,1/8,,,,,,,,
{48}
2-5[1040#8:1]*-6[1040#8:1],2h[48:23],,
{16}
,,,,,,,
{48}
7-3[1040#8:1]*-4[1040#8:1],7h[48:23],,
{16}
,,,,,,,
{48}
1$,1,,,,,2/8,2/8,,3/7,3/7,,
4qq5[8:1]/6pp5[8:1],4/6,,,,,5,5,,,,,
{8}
4/6,,6h[8:1],2h[8:1],
{4}
8-4[8:1]*-6[65#16:1],8h[4:1],1-5[8:1]*-3[65#16:1],1h[4:1],
{8}
6q3[4:1]*v3[4:1]*-3[4:1]*^3[4:1],6,,,,7-2[260#8:1],2v4[260#4:7],3h[8:5],
{4}
,,,1/8,
{12}
3,4,5,
{16}
6,7,8,1,
2,3,4,5,
{20}
6,7,8,1,2,
3,4,5,6,7,
8,1,2,3,4,
{24}
5,6,7,8,1,2,
3,4,5,6,7,8,
{28}
1,2,3,4,5,6,7,
8,1,2,3,4,5,6,
{32}
7,8,1,2,3,4,5,6,
7,8,1,2,3,4,5,6,
{36}
7,8,1,2,3,4,5,6,7,
(135.5)
8,1,2,3,4,5,6,7,8,
(130)
{48}
1h[1:4]/6b,5,4,3,2,,
8,7,6,5,4,3,
2,,8,7,6,5,
4,3,2,,8,7,
6,5,4,3,2,,
8,7,6,5,4,3,
2,,8,7,6,5,
4,3,2,,8,7,
6,5,4,3,2,,
8,7,6,5,4,3,
2,,8,7,6,5,
4,3,2,,8,7,
6,5,4,3,2,,
8,7,6,5,4,3,
2,,8,7,6,5,
4,3,2,,8,7,
6h,5h,4h,3h,2h,,
8h,7h,6h,5h,4h,3h,
2h,,8h,7h,6h,5h,
4h,3h,2h,,8h,7h,
6h,5h,4h,3h,2h,,
8h,7h,6h,5h,4h,3h,
2h,,8h,7h,6h,5h,
4h,3h,2h,,8h,7h,
6h,5h,4h,3h,2h,,
8h,7h,6h,5h,4h,3h,
2h,,8h,7h,6h,5h,
4h,3h,2h,,8h,7h,
6h,5h,4h,3h,2h,,
8h,7h,6h,5h,4h,3h,
2h,,8h,7h,6h,5h,
4h,3h,2h,,8h,7h,
{24}
6b$,6$,6$,6$,6$,6$,
6$,6$,6$,
(333)
6$,
,6$,,6w2[4:1],,
{4}
,,,
(123)
{64}
1b>1[30.75#32:1]*<1[30.75#32:1],2b>2[30.75#32:1]/8b<8[30.75#32:1],3b<3[30.75#32:1]/7b<7[30.75#32:1],4b<4[30.75#32:1]/6b>6[30.75#32:1],5b<5[30.75#32:1]*>5[30.75#32:1],,,,
{8}
,,,,,,,
{1}
,
(130)
{8}
3>7[8:1],6<2[8:1],3,6,4p1[260#4:1],7-2[260#8:1],,7-1[8:1]/3-5[8:1],
,3/7,,3/4/5/6,2/3/6/7,1/2/7/8,2/3/6/7,3/4/5/6,
2^7[260#8:1]/7^2[260#8:1]/3/6,2-4[260#8:1]*-5[260#8:1]/7-4[260#8:1]*-5[260#8:1]/1h[8:1]/8h[8:1],,
{16}
1,1,
{8}
5-8[8:1],4-1[520#4:1],5,2v3[8:1]*v7[8:1]*-6[8:1],
,2,,8>1[260#4:1]*>2[260#2:1]*>3[260#4:3]*>4[260#1:1],
1$/7,2$/6,3$/5,4h[4:1],
7-2[8:1]/6-3[8:1],2-7[8:1]/3-6[8:1],,,
{16}
1h[16:3],,,8^3[520#8:1],8h[8:1],,4,,
5,,6,,8/1/2,3-1[260#8:1]/4v1[260#8:1]/6v1[260#8:1]/7-1[260#8:1],,,5,,,,4/6,,4$/6$,,
3/7,,3$/7$,,2-6[260#4:1]/1-7[260#4:1]/8-4[260#4:1],,8/1/2,,,,3h[8:1]/5h[8:1],,2h[8:1]/6h[8:1],,3q5[4:1]*qq5[4:1]/7p5[4:1]*pp5[4:1],,
{8}
,1,1,,
{48}
2/5,3/6,4/7,,,,,,,2$/5,3$/6,4$/7,,,,,,,2$/5$,3$/6$,4$/7$,,,,
{8}
6p1[4:1]*v1[4:1],6,6,6,,2/8,3/7,4/5-1[8:1]*-2[8:1]*-3[8:1]*-7[8:1]*-8[8:1]*w1[8:1]/6,
,5,,,5/6/7,1/2/3,6/7/8,2/3/4,
1pp3[8:1]/3pp5[8:1]/5pp7[8:1]/7pp1[8:1],1/3/5/7,,,2/8,4/6,2/7,1-3[16:1]/8-6[16:1],
,1/2,,1q6[4:1]*v6[4:1],1,1,1,1,
2-6[260#8:1]/8-4[260#8:1],2/8,1h[8:1],7h[8:1],
{16}
3h[16:3],,,5h[16:3],,,1q4[8:3]/8,1/8,
1/8,,5/6,5/6,,6/7,,,7/8-5[260#8:1],,,,4,,4,,
{8}
3,2,1<4[8:1]/8<4[8:1],1/8,,2/3,6/7,1qq4[4:1]/8pp5[4:1],
,1b/8b,,,
{16}
,,1q4[260#2:1],1,7-2[16:1],,7,7,
3-5[260#4:1],,3,7-1[260#4:1],,7,4p1[260#2:1],,,7,7-2[260#4:1],7,3-5[520#8:1],3,7-1[520#8:1],7,
2,,1q5[520#4:1]/2-7[520#4:1],1/2,,8h[16:1],5^2[520#4:1],,
,3h[8:1]/8V63[520#4:1],8,,8-4[260#8:1]*v2[260#8:1],8,8,1v3[8:1]*v6[8:1]*v7[8:1],
,,1,,2<3[4:1],,2,3h[16:3],,,,,6v4[4:1]*V84[4:1],6,6,6,
,,,,,,1-5[260#8:1]/2-8[260#8:1],1/2,1v4[16:1]*v6[16:1]/2,,1,1,,1/2,1/2,,
{8}
,3,4,5,6/7,5/8,1/4,2/3,
1h[4:1]/8h[4:1],,,1/2,,1-5[260#8:1]/2v4[260#8:1],1/2<3[4:1],,
2/7,,7-2[1040#8:1],7-2[1040#8:1],7-2[1040#8:1],7-2[1040#8:1],7-2[1040#8:1],7-2[1040#8:1],
{16}
7b-4[65#32:1],,1/8,1/8,,2,2-5[260#8:1],,2b/7b,,3/6,,2/7,,1/8,,
{8}
1h[8:1]/8h[8:1],,4-2[260#4:1]*-8[260#4:1]/5-1[260#4:1]*-7[260#4:1],4/5,
,1-5[520#8:1]/2-4[520#8:1],7-5[520#8:1]/8-4[520#8:1],1-5[520#8:1]/2-4[520#8:1],
{16}
7-5[520#8:1]/8-4[520#8:1],,1-5[520#8:1]/2-4[520#8:1],7-5[520#8:1]/8-4[520#8:1],
1-5[520#8:1]/2-4[520#8:1],7-5[520#8:1]/8-4[520#8:1],,,
{2}
4b-2[520#1:1]*-1[520#1:1]*-8[520#1:1]*-7[520#1:1]/5b-7[520#1:1]*-8[520#1:1]*-1[520#1:1]*-2[520#1:1],
{8}
5q2[520#4:1]/6^1[520#4:1],1^6[520#4:1]/2p5[520#4:1],5q2[520#4:1]/6^1[520#4:1],1^6[520#4:1]/2p5[520#4:1],
,,1-6[16:1]*s5[16:1]*p4[16:1]/7-2[16:1],1/7,
{16}
1/7,,,2-8[16:1]*v4[16:1],,,2,,
4b/6b,,,,5,,5,,
7h[2:1],,,8,,,1,,2h[2:3],,
{48}
6,5,4,3,4,5,6,5,4,3,4,5,6,5,4,3,4,5,
6,5,4,3,4,5,6,5,4,3,4,5,6,5,4,3,4,5,6,5,4,3,4,5,
6,5,4,3,4,5,6,5,4,3,4,5,6,5,4,3,4,5,6,5,4,3,4,5,
{8}
6h[4:3],5,5,5,5,5,
5<6[32:1]*<7[16:1]*<8[32:3]*<1[8:1]*<2[32:5]*<3[16:3]*<4[32:7]*-8[32:3]*q1[8:1]*q2[32:5]*q3[16:3]*q4[32:7],5,
{4}
5b,
{8}
,7^2[8:1],2v4[8:1],3,3,3,
{16}
7^2[8:1],,,2v4[8:1],,,3,,7^2[8:1],,2v4[8:1],,3,,3,,
,,7^2[8:1],,2v4[8:1],,3,,3,,,,2p6[16:1]/6-3[16:1],,2/6,,
{8}
2/6,3/6,3/6,5-7[520#8:1]*-8[520#8:1],4-1[520#8:1]*-2[520#8:1],5-1[520#8:1]*-2[520#8:1],4-7[520#8:1]*-8[520#8:1],5,
{16}
2qq4[8:1]/7pp5[8:1],,2/7,2/7,,,3/6,,
1b/8b,,,,2/7,3/6,2/7,3/6,
2h[8:1]/7h[16:5],,3,2h[8:3],,6,7h[16:3],,,3h[8:1]/6h[4:1],,2,3h[4:1],7,6h[8:1],,
2h[8:1]/7h[16:5],,3,2h[8:3],,6,7h[16:3],,,3h[8:1]/6h[4:1],,2,3h[16:3],7,6h[16:1],,
,,,,1bq8[8:1]/8bp1[8:1],,,1/8,,,4/5,,3/6,,2-4[1040#8:1]/7-5[1040#8:1],,
{1}
,
,
,
,
E
