&title=INFINITY SKY
&artist=DiGiTAL WiNG
&first=0
&des=NaOH
&clock_count=4
&lv_5=13+
&inote_5=(158)
{4},,,,Cf,,,,
{16}
3x,4,2,4,3,,6,5,6,,45,,3,,12,,8,8,,17,,6^3[8:1]/2,,1h[16:3],,,,,1,,28,,
6x,5,7,5,6,,3,4,3,,54,,6,,87,,1h[8:1],,6,2h[8:1],,5,3h[8:1],,5,4h[8:1],,6,3,,27,,
1x,8,1,8,1,,6,5,7,,65,,4,,35,,2,2,,17,,8<5[8:1]/2,,1h[16:3],,,,,1,,27,,
34,,2,4,,3,5,,4,6,,5,7,,8,,17,17,,2,,34,,5,2x,3x,4x,5x,6x,7x,8x,1x,
2bx-5[8:1]/7bxh[8:1],,,,8h[8:1],,,,1,,,28,,,37,,
7<4[8:1]/3,,,,27,,1h[4:1],,,,4<7[8:1],,1,,2,,
3-1[12:1],,,,4-8[12:1],,,,2q6[8:1],,,,7<3p6[8:5],,,,
7/C,,,,E1,,E2,,E3,,E4,,4xp2b[8:3],,,,
4x/5x,,,,,,,,8,,,17,,,26,,
2-6[8:1]/6-2[8:1],,,,C,,,,4,,,35,,,26,,
7,,7h[8:1],,5,,5h[8:1],,4,,4h[8:1],,2,,2,,
18,,,57,,,24,,8b<5[8:1]/1b,,,,4,3,2,1,
8bx,,6,5,,6,5,,47,,3,4,,3,4,,
2qq1[8:1]/5pp6[8:1],,,,25,,,,34,,,45,,,56,,
6,5,6,,3,4,3,,7,5,6,,2,4,3,,
4-1[8:1]/8-5[8:1],,,,4b/8b,,,,3-8[8:1]/7-4[8:1],,,,3b/7b,,,,
2x/6x,,3,5,,5,4,,26,,7,1,,1,8,,
1v4[8:1]/7v4[8:1],,,,17,,,,35,,,26,,,17,,
1,8,2,,7,8,6,,2,1,3,,6,5,7,,
4b/8b,,,5b>7b[4:1]/2b,,,Cf,,,,2x,,3x,,4x,,
7bx<4[8:1]/5bx,,8,,37,,2,2,8<6[12:1],,1,,8-4[8:1],,3^1[12:1],,
8,,3,,7<4[8:1],,2,2h[16:3],,,,,8,7,6,5,
2x>5[8:1]/4x,,1,,26,,7,7,4,,26,,4p4>7b[4:2]/5,,18,,
4b/6bh[4:2],,,,,,,,,,5,,4,,3,,
2-6[8:1],,1,,8z4b[4:1]/2,,,,,,3,,2,,1,,
7-4[8:1],,8,,1s5b[4:1]/7,,,,,,6,,7,,8,,
1-5[8:1],,5^3-1[8:1]*^7-1b[8:1],,1,,,,,,53,,62,,71,,
6,5,6,5,6,,3,4,2,4,3,,8,7,6,5,
2bxq6[8:1]/4bx,,1,,62,,7,7,1>3[12:1],,8,,1-5[8:1],,6^8[12:1],,
1,,6,,2>5[8:1],,7,7h[16:3],,,,,1,2,3,4,
5x/6x-1[8:1],,7,,65,,3,3,4,,17,,5p4>5b[4:2]/4,,12,,
5b/3bh[4:2],,,,,,,,,,2,,3,,4,,
5<8[8:1],,4,,3p2b[4:1]/5,,,,,,7,,6x,,5x,,
4>1[8:1],,5,,6q7b[4:1]/4,,,,,,1,,2x,,3x,,
4,5,4,5,4,,36,,7,2,8,1,7,,6p7>5b[8:7]/3,,
3bh[4:3],,,,,,,,,,,,,,,,Chf[4:3],,,,,,,,,,,,,,,,
{8}
6xh[8:1]/E2,,6h[8:1]/E3,,6h[8:1]/E4,,6h[8:1]/E5,,
4-1[8:1]/7h[8:1],,6h[8:1],,8-3[8:1]/4h[8:1],,5h[8:1],,
4h[8:1]/A6,,7h[8:1]/A3,,2h[8:1]/A6,,8h[8:1]/A3,,
1h[8:1]/A7,,8h[8:1]/A3,A4,,2h[8:1]/A6,A5,,
2h[8:1]/7,,5,5h[4:1]/E3,,3,3h[4:1]/A7,,
8h[8:1]/A4,,2h[8:1]/A6,,7h[8:1]/A3,,1h[8:1]/A5,,
7pp7qq7[8:5]/3,,,,,,,,{16}3x,4x,3x,4x,3x,,5x,4x,6x,5x,6x,5x,6bx,,,,
{16}
18,,2,4,,3,5,,17,,6,4,,5,3,,
4w8[8:1],,,,4,,,,75,,,46,,,35,,
3,4,2,,6,5,7,,3,4,1,,6,5,8,,
1-6[8:1]/5-2[8:1],,,,1b/5b,,,,8-3[8:1]/4-7[8:1],,,,4b/8b,,,,
18,,3,4,,6,5,,18,,2,4,,7,5,,
1pp3[8:1]/8qq6[8:1],,,,18,,,,45,,,36,,,27,,
1,8,2,,7,8,6,,2,1,3,,6,5,7,,
{48}2b,D3,A3,D4f,,,,,,7b>5b[4:1],D7,A6,D6f,,,,,,
Cf,,,,,,,,,,,,{16}1x,,2x,,3x,,
{16}
4b-1[8:1]/5b,,36,,47,,8,8,2^4[12:1],,1-5[8:1]/8,,2-6[8:1],,1,,
2,,7<4[8:1],,6x/8x,,7,,3,2,1,8,4,5,6,7,
1x-4[8:1]/8x,,2,,18,,7,7,2-6^8[4:1],,56,,8-3^4b[4:1]/2,,5,,
5bh[4:1],,,,,,,,4,5,3,5,2>5[8:1],6,1,7,
2x,,8-5b[8:1],,7,,,,4,3,2,1,7<4[8:1],8,6,1,
7,,1-4b[8:1],,2,,,,5,6,7,8,2>5[8:1],1,3,8,
2x,,8z4b[4:1],,7,,,,,,1>1b[8:4],,2,,3,,
Cf,,,,,,,,3,4,2,5,1,2,3,4,
6b-1[8:1]/5b,,47,,36,,2,2,7^5[12:1],,8-4[8:1]/1,,7-3[8:1],,8,,
7,,2v5[8:1],,3x/1x,,2,,6,7,8,1,5,4,3,2,
8x-5[8:1]/1x,,7,,81,,2,2,3x-1-7[4:1]/4,,16,,7V58b[4:1]/3,,4,,
4bh[4:1],,,,,,,,1,5,2,6,3>8[8:1],7,4,8,
3x,,7<4b[8:1],,6,,,,3,2,1,8,5<8[8:1],1,4,2,
5,,4>1b[8:1],,3,,,,5,6,7,8,2,6,3,5,
2,4,2,4,2,,1,,7,5,7,5,7,,8,,
1>8[4:1]/8,,,,,,,,E2,B2,B3,E4,E6,B6,B7,E8,
1x,7x,1x,7x,1x,,28,,4b/5b,,,1b/8b,,,2b/7b,,
3bqq5b[4:2]/6bpp4b[4:2],,,,,,,,,,,,,,,,
Chf[4:3],,,,,,,,,,,,,,,,
{16}
3x,4,2,4,3,,6,5,6,,45,,3,,12,,8,8,,17,,6^3[8:1]/2,,1h[16:3],,,,,1,,28,,
6x,5,7,5,6,,3,4,3,,54,,6,,87,,1h[8:1],,6,2h[8:1],,5,3h[8:1],,5,4h[8:1],,6,3,,27,,
1x,8,1,8,1,,6,5,7,,65,,4,,35,,2,2,,17,,8<5[8:1]/2,,1h[16:3],,,,,1,,27,,
34,,2,4,,3,5,,4,6,,5,7,,8,,17,17,,2,,34,,5,2x,3x,4x,5x,6x,7x,8x,1x,
{4}2x/C,D8/E8,D7/E7,D6/E6,D5/E5,D4/E4,D3/E3,D2/E2,
4pp4qq4b[4:3],,,,Cfh[4:8],,,,,,,,,
