&title=Bloody Marquis
&artist=brz1128 vs. M-UE
&first=0
&des=もふもふウサギ
&lv_1=2
&lv_2=4
&lv_3=8
&lv_4=11
&lv_5=13
&inote_1=(220){1},
1,1,8,8,
2,2,7,7,
3-8[2:3],,6-1[2:3],,
{2}4h[2:1],,5h[2:1],,
3>6[2:3]/6,,,,
{2}5-8[4:5],,,,4-1[4:5],,,,
7-4[4:5],,,,2-5[4:5],,,,
6,6,6h[2:1],,3,3,3h[2:1],,
8,8,8h[2:1],,1,1,1b,,
5,5,5,,4,4,4,,6-1[4:5],,,,2-5[4:5],,,,
8,8,8,,1,1,1,,7^4[4:5],,,,3^8[4:5],,,,
5h[2:1]/6h[2:1],,6,56,
4h[2:1]/5h[2:1],,2h[2:1]/7h[2:1],,
4h[2:1]/3h[2:1],,3,43,
4^1[4:5]/5^8[4:5],,,,
1h[2:1]/2h[2:1],,2,12,
8h[2:1]/7h[2:1],,7,87,
3h[2:3]/6h[2:3],,,,
18,1-5[4:5]/8-4[4:5],,,
{1},,3,,6,6,2h[8:7],,
8-3[4:5],,1-6[4:5],,
{2}
5,5,5h[2:1],,4,4,4b,,
8,8,8,,1,1,1,,7-4[4:5],,,,3-8[4:5],,,,
5,5,5,,4,4,4,,6^1[4:5],,,,2^5[4:5],,,,
7,7,7h[2:1],,8,8,8h[2:1],,
1,1,1h[2:1],,2,2,2h[2:1],,
3-6[4:5],,,,7-2[4:5],,,,
4,4,4h[2:1],,5,5,5b,,
{1}3,3,6,6,2,2,7,7,18,,,,E
&inote_2=(220){1},
2-5[8:9],,7-4[8:9],,
5-1[8:9],,4,4h[4:3],
{4}
3,3^8[4:3],,,,,7,7,
6,6^1[4:3],,,,,2,2,
4,4,5,5q8[1:1],{1},,
{4}
1,1,1,1b,
1h[1:1],,,,,,2,2,
2,,7,7,7,,3,3,3,,6,6,
6,,4,4,4h[2:1],,,,5h[2:1],,,,
8h[1:1],,,,,,7,7,
7,,2,2,2,,6,6,6h[1:1],,,,
,,4,4,{1}4-8[4:3],,
{4}
7,7,7-4[8:7],,,,,,3,3,3-8[8:7],,,,,,
6h[2:1],,,{8},{4}6,6,6,{8},{4},
5,5,5,,5h[4:3],,,,
2,2,2-5[8:7],,,,,,6,6,6-1[8:7],,,,,,
3h[2:1],,,{8},{4}3,3,3,{8},{4},
4,4,{2}4,4h[4:3],,
5-8[4:3],,,,{4}1,1,{2}1,3h[2:1]/6h[2:1],,
4-1[4:3],,,,{4}8,8,{2}8,6h[2:1]/3h[2:1],,
{4}5,5,5,,4,4,4,,
{2}3h[2:1]/6h[2:1],,2h[2:1]/7h[2:1],,
1q4[4:5]/8,,,,6,3,3h[1:1]/6h[1:1],,
{1},,,,6>8[8:21],,,,
7-4[8:9],,2-5[8:9],,
5h[2:1],4h[2:1],
{4}1,1,1h[2:1],,8,8,8,8b,
{4}
2,2,2^5[8:7],,,,,,6,6,6^1[8:7],,,,,,
3h[2:1],,,{8},{4}3,3,3,{8},{4},
4,4,4,,4h[4:3],,,,
7,7,7^4[8:7],,,,,,3,3,{2}3^8[8:7],,,
5h[8:5]/6h[8:5],{8},,,5^2[8:5]/6,{4},,,,
34,,34,,4^7[2:1]/3,,,,
{2}
1,1,2,2,8,8,7,7,
3,3,5,5,4,4,6,6,
{4}
2,2^5[4:3],,,,,6,6,
7,7^4[4:3],,,,,3,3,
{1}2q5[4:7],,8h[2:1],
{4}7,7,7,7bp4[1:2],
{1},,,,
5-1[8:9],,4-8[8:9],,
1b,,,,E
&inote_3=(220){1},
{8}
4,,3,,2,2^5[2:1],,,{1},
{8}
5,,6,,7,7^4[2:1],,,{1},
{8}
2h[4:7],,,,,,,7h[8:7],{1},
1^4[8:5]/8^5[8:5],
{8}
,,3h[2:1],,7,,7b,,
78,,78,,,5,,
4/6h[8:3],,3,3h[2:1],,4h[4:1],,,,
21,,21,,,4,,
5/3h[8:3],,6,6h[2:1],,5h[4:1],,,,
{4}7,7,2,2,8,8,1,1V35[4:3]*V75[4:3],
,,,,
4,35,26,1b/7b,
8v5[4:3],,,,,,4,4,
4v1[4:3],,,,,,6,6,
6h[2:1],,3,4,
3h[2:1],,5,4,
5h[2:1],,6h[2:1],,
7h[2:1],,8,,
{4}
1b/8bp3[4:3],,,,,,2,2,
1q6[4:3]/8,,,,,,7,7,
4>8[4:3]/5,,,,,,7,7,
5-2[2:1]/6-1[2:1],,,,
3b/8b,,,,
{8}
5p1[8:3]/7v1[8:3],,,,,,,
28,,3,,17,,6,,,
4q8[8:3]/2v8[8:3],,,,,,,
71,,6,,82,,3,,,
4h[4:1],,5h[4:1],,6<3[8:5],,,,
,,,,,5,4,5,
{4}4p7[2:1]*q1[2:1],,,,68,68,45,4b/5b,
{8}
4q8[8:3]/2v8[8:3],,,,,,,
71,,6,,82,,3,,,
5p1[8:3]/7v1[8:3],,,,,,,
28,,3,,17,,6,,,
5h[4:1],,4h[4:1],,3>6[8:5],,,,
,,,,,4,5,4,
{4}5q2[2:1]*p8[2:1],,,,3bpp5[2:1]/1b<5[2:1],,,,
4h[4:1]/7h[4:1],,24,,
4,{8},4,{4}2/4V61[2:1],,
,,24,,
8V64[2:1]/4V28[2:1],,,,
5h[4:1]/2h[4:1],,75,,
5,{8},5,{4}75,,
5,5,7pp2[4:3]/5,,,,,,
3,4,3,5,2,2,12,,
7,8,6,8,1V35[2:1]/5V71[2:1],,,,
3qq8[4:5]/4pp7[4:5],,,,,,,,
1h[4:1]/6h[4:1],,3h[4:1]/8h[4:1],,
{8}45,,,45,,,4-1[4:1]/5-8[4:1],,
{1},,,,
{4}2-5[2:1],,,,7-4[2:1],,,,
3-8[8:5]/6-1[8:5],,,,
,{8},27,,,,,
64,,64,,,8,,
1/7h[8:3],,3,3h[2:1],,1h[4:1],,,,
34,,34,,,1,,
8/2h[8:3],,6,6h[2:1],,8h[4:1],,,,
{4}
5,5,56,56,4,4,34,34,
27,1s5[2:1]/8,,,7b,7b,7b,7b,
{8}
4V68[8:3]/3v1[8:3],,,,,,,
74,,6,,52,,3,,,
5V31[8:3]/6v8[8:3],,,,,,,
25,,3,,47,,6,,,
5h[4:1],,4h[4:1],,3>6[8:5],,,,
,,,,,4,5,4,
{4}5V38[2:1]*V72[2:1],,,,17,17,54,5b/4b,
{8}
5V31[8:3]/6v8[8:3],,,,,,,
25,,3,,47,,6,,,
4V68[8:3]/3v1[8:3],,,,,,,
74,,6,,52,,3,,,
46,,7,7h[2:1],,5h[4:1],,,,
35,,2,2h[4:1],,4>4[8:7]*<4[8:7],,
{4},,,,2b,2b,2b,2b,
3,3,34,34,5,5,45,,
7,7,68,68,15,26,37,,
6,6,65,65,4,4,54,,
2,2,31,31,84,73,62,,
{8}
34,,34,,,2,,
3^6[8:3]/1^6[8:3],,,,,,,,,
78,,78,,,6,,
5^2[8:3]/7^2[8:3],,,,,,,,,
{4}
8,8,87,87,1,1,21,21,
45,36,27,1^4[2:1]/8^5[2:1],,,,3b/6b,
{1}2>7[4:11],,,,
{8}
8,,8,,7<3[8:5],,,,{1},
{8}
4,,4,,3>7[8:5],,,,{1},
{1}5b,,,,E
&inote_4=(220){1},
{8}
2h[4:1],,1,,7,7h[4:1],,6h[4:1],,
5h[4:1],,2^5[4:1],,,,,
7h[4:1],,8,,2,2h[4:1],,3h[4:1],,
4h[4:1],,6^1[4:1],,,,,
3h[4:1],,4,,6,5/7h[4:1],,8,,
16,,2/5h[4:1],,4,5,4,
5,,2,8,2,7,1,7<2[8:5],
,,,,,,1b,,
5,,6h[8:3]/4h[8:3],,,,,
7h[8:3],,8,8,,7-4[8:1]/8-3[8:1],,,,
1,,2h[8:3]/8h[8:3],,,,,
3h[8:3],,4,4,,3-8[8:1]/4-7[8:1],,,,
6,5,6,5,6,5,6,5,
47,47,36,36,25,25,1q4[1:1]/4,14,
{4},,,,
8b,3b/7b,2b-5[8:1]/6b-1[8:1],,
8h[2:1],,4h[2:1],,
8h[2:1],,4h[4:1],3h[4:1],
1h[2:1],,5h[4:1],2h[4:1],
1<4[4:3],,,,
3h[2:1],,4h[4:1],3h[4:1],
4h[2:1],,5h[4:1],4h[4:1],
3-8[4:1],,7-4[4:1],,
1,1,{8}1,8,1,8,
{4}
2bpp5[1:1]/7,7,7,7,7,7,47,37,
2/7qq4[1:1],2,2,2,2,2,62,72,
1pp5[1:1]/8,8,8,8,8,8,{8}8,1,8,1,
7^4[8:1],7,1,,2^5[8:1],2,8,,
6,6,3,3,8-4[8:1],8,1b,,
35,,1/2V48[4:1],,7,,,
6-1[8:1],,5,,4-8[8:1],,5,,5,
46,,7V51[4:1]/8,,2,,,
3-8[8:1],,4,,5<1[4:1],,,,,
3,5,3,5,2,2^7[4:1],,7p4[2:1],
,,,,,6,5,6,
5-1[8:1],,8,8h[8:5],,1,2,3,
4b-8[8:1],,5b-7[8:1],,1b-5[8:1],,8b,,
64,,8/7V51[4:1],,2,,,
3-8[8:1],,4,,5-1[8:1],,4,,4,
53,,2V48[4:1]/1,,7,,,
6-1[8:1],,5,,4h[4:1],,5,3b/6b,,
7,8,7,8,6,1,6,1,5,2,5,2,4,3,4,3,
7h[8:5],,2,2h[4:1],,,1s5[4:3]/8z4[4:3],18,
{4},,,,
6h[2:1]/5^2[4:1],,{8},7,1,7,
,5,4z8[8:3],5,,,,,
1^4[4:1]/5^8[4:1],,,,,5,6,5,
{4}6h[2:1],1,3h[1:1],8,
4^7[4:1],,{8},2,8,2,
,4,5s1[8:3],4,,,,,
48,,6h[4:1]/2,,1,7h[4:1]/8,,4,,
56,5-1[8:1]/6-2[8:1],,,,,,
3,5,3,5,2,5,2,5,
1,5,1s5[8:3],5,,,,,
6,4,6,4,7,4,7,4,
{4}
8h[2:1],6,1h[4:1],3bpp6[1:1]*qq8[1:1],
,,,,,,{8}5,5,4,4,
7-3[8:1],7,8,,2-6[8:1],2,1,,
8,8,1,1,27,36,{4}4-1[8:1]/5-8[8:1],
{1},,,,
4h[4:7],5h[4:3],3p6[8:5],
{8}
,,,45,,3,2,1,
8,,7h[8:3]/1h[8:3],,,,,
6h[8:3],,5,5,,6-1[8:1]/5-2[8:1],,,,
4,,3h[8:3]/5h[8:3],,,,,
2h[8:3],,1,1,,2-5[8:1]/1-6[8:1],,,,
3,4,3,4,2,5,2,5,1,6,1,6,8,7,8,7,
{4}1h[4:1],5<1[4:1],1>5[4:1],,
1b,6b/2b,7b-4[8:1]/3b-8[8:1],,
{8}
1/6h[4:1],,5V38[4:1],,7,,,
7-4[8:1],,1h[4:1],,5-1[8:1],,2,,2,
8/3h[4:1],,4V61[4:1],,2,,,
2-5[8:1],,8h[4:1],,4>8[4:1],,,,,
6,4,6,4,7,7^2[4:1],,2q5[2:1],
,,,,,3,4,3,
4-8[8:1],,1,1h[8:5],,8,7,6,
5b-1[8:1],,4b-2[8:1],,8b-4[8:1],,1b,,
5/2h[4:1],,1V74[4:1],,3,,,
3-8[8:1],,5h[4:1],,1-5[8:1],,6,,6,
4/7h[4:1],,8V25[4:1],,6,,,
6-1[8:1],,4h[4:1],,8<4[4:1],,,,,
2h[8:3],,1,1-5[8:1],,3h[4:1],,4,,
7h[8:3],,8,8-4[8:1],,6h[4:1],,
{16}5,,,5,,,5,,8,,,8,,,8,,
{4}
1b-5[8:1],8b-6[8:1],4b-8[8:1],5b,
{16}
7h[8:3],,,8h[16:3],,,,,
7,,8,,6,,1,,
5h[8:3],,,4h[16:3],,,,,
4,,5,,3,,6,,
2h[8:3],,,1h[16:3],,,,,
2,,1,,3,,8,,
1h[8:3],,,8h[16:3],,,,,
3,,6,,4,,5,,
2h[8:3],,,1h[16:3],,,,,
2,,1,,3,,8,,
4h[8:3],,,5h[16:3],,,,,
5,,4,,6,,3,,
7h[8:3],,,8h[16:3],,,,,
7,,8,,6,,1,,
5,,2,,6,,3,,
5,4,5,4,5b,,,,
{4}6q3[8:3]/3>6[8:3],,,{8},24,
,5,{4}4-8[4:1]/5-1[4:1],,,
2q7[8:3]/7<2[8:3],,,{8},68,
,1,{4}8-4[4:1]/1-5[4:1],,,
36,36,12,12,78,78,45,45,
{8}2,2,7,7,{16}1,2,3,4,5,6,7,8,
{4}1-4[8:1],1-6[8:1],1-5[8:1],1b,
{1},6h[64:1],7h[64:1],8h[64:1],
{8}
2h[4:1],,1,,7,8>4[2:1],,,
,,,,,5,4,5,
4,,7,1,7,2,8,2,
4h[4:1],,5h[4:1],,6,5,7,4,
{1}8h[1:3],,,,E
&inote_5=(220){1},
{8}
46,,7,,7,8h[4:1],,5h[4:1],,
1h[4:1],,4h[2:1],,8,1,2,
53,,2,,2,1h[4:1],,4h[4:1],,
5h[4:1],,8h[2:1],,5,6,7,
78,,6h[8:5],,3,3h[4:1],,,,
4,5,4h[4:1],,5,4,3,
12,,8,5,7,1,4,2,
,,36,,1-4[8:1]/8-5[8:1],,,,
34,,2h[8:3]/5,,,1,,
3/8h[4:1],,6,8h[4:1],,5,7,4,6,
65,,7h[8:3]/4,,,8,,
2/5h[4:1],,4,5h[4:1],,1,6,2,7,
38,7,16,2,45,36,27,18,
{16}1,8,1,8,2,7,2,7,3,6,3,6,4>5[1:1],5,4,5,
{4},,,,
3b-7[8:1],6b-2[8:1],4b-1[8:1],5b,
8h[4:1]/7,7,6h[4:1]/7,7,
8h[4:1]/7,7,5h[4:1]/7,4,
1h[4:1]/2,2,3h[4:1]/2,1h[4:1],
8h[4:1],6h[4:1],5h[4:1],4,
1h[4:1]/3,3,35,18,
4h[4:1]/6,6,6/5h[4:1],4,
3h[4:1]/4,4,2h[4:1]/4,4,
1-4[8:1]/5-8[8:1],15,{8}37,37,26,26,
1b/5b,,78,,{16}6,5,6,5,{8}6-1[8:1],,
2^5[8:1],,2,8-4[8:1],,8,1,,
37,,12,,{16}3,4,3,4,{4}3>7[4:1],
7<3[4:1],3,7,2-5[8:1]/7-4[8:1],
27,27,{16}1,8,1,8,{8}1-5[8:1],,
7^4[8:1],,7,3-8[8:1],,3,6,6,
{16}6,5,4,3,2,1,8,7,26,3,4,5,6,7,8,1,
{8}7b,5b,6b,2b,4b,3b,1b/8b,,
5/6-1[8:1],,2V46[4:1],,2,8-4[8:1],,8^3[8:1],
,8^5[8:1],,8,,8,{16}8,1,2,3,
{8}
5/4-1[8:1],,8V64[4:1],,8,2-5[8:1],,2/7-3[8:1],
,1-5[8:1]/7,,1/6h[2:1],,4,3,2,
1-4[8:1]/5-8[8:1],,15,,37,1V35[4:1]/5,,5V71[4:1],
,1v4[8:1]*v6[8:1],,,,3,5-8[8:1],3,
5,2-5[8:1],1,2,8,17,26,35,
4b-6[8:1]*-7[8:1],,4b-1[8:1]*-2[8:1],,4bw8[8:1],,4b,,
4/3-8[8:1],,7V53[4:1],,7,1-5[8:1],,1^6[8:1],
,1^4[8:1],,1,,1,{16}1,8,7,6,
{8}
4/5-8[8:1],,1V35[4:1],,1,7-4[8:1],,7/2-6[8:1],
,8-4[8:1]/2,,8/3h[4:1],,6,1b/8b,,
{8}7,7,6,6,5,5,4,4,3,3,2,2,{16}8,1,8,,27,,27,,
3,5,3,5,4,6,4,6,4,3,2,1,4qq8[4:3]/8qq4[4:3],5,6,7,
{4},,,,
1h[16:3]/2h[16:3],1h[16:3]/2h[16:3],{8}38,4,4,4,
37,{16}6,5,{8}6,1,28,7h[64:1],7h[64:1],7h[64:1],
{16}2,3,4,5,6,7,8,1,{8}62,5,5,5,
{4}4q7[2:1]/3qq7[2:1],,,,
8h[16:3]/7h[16:3],8h[16:3]/7h[16:3],{8}61,5,5,5,
62,{16}3,4,{8}3,8,17,2h[64:1],2h[64:1],2h[64:1],
{4}3-8[8:1]/7-4[8:1],3V57[4:1]/7V13[4:1],,{8},8^5[8:1],,
{24}5,4,3,{4}2w6[8:1],2,,
{8}3h[2:1],5,6,7,8h[2:1],5,4,3,
2h[2:1],4,5,6,7h[8:3],4h[64:1],4h[64:1],4h[64:1],
6h[2:1],8,1,2,3h[8:3],8,7,6,
{4}4-2[8:1]/5-7[8:1],,{16}18,27,{8}36,3b/6b,,
7h[8:3],3,2,1h[8:3],7,6,5h[4:3],1,
2,2,3,3,4h[8:3],5,6,6,
{16}7-4[8:1],8,7,8,7,,,,2-5[8:1],1,2,1,2,,,,
8,1,7,2,6,3,5,4,
{32}5,4,3,2,1,8,7,6,{4}4-1[8:1]/5-8[8:1],
{1},,,,
2h[1:1],3h[1:1],{8}4,4,5,4,,6,5,6w2[4:1],
,,,,,7,8,7,
45,,3/6-1[8:1],,,3-7[8:1],,5-8[8:1],
,1,1h[4:1],,6,2,38,7,
45,,3-7[8:1]/6,,,6-2[8:1],,1-4[8:1],
,7,7h[4:1],,5-2[8:1]*-8[8:1],,5,,
{8}6,6,7,7,8,8,1,1,2,2,3,3,{16}6,4,6,,3,5,3,,
{16}8,7,6,5,8,1,2,3,{12}5,5,5,4,4,4,
{4}3b/6b,2b/7b,1b-4[8:1]/8b-5[8:1],1b/8b,
{8}
7-3[8:1]/8,,3V58[4:1],,1,1^4[8:1],,1^6[8:1],
,1-5[8:1],,1,,1,{16}1,8,7,6,
{8}
5/4-8[8:1],,8V25[4:1],,7,7-3[8:1],,7/1-5[8:1],
,1-3[8:1]/8-4[8:1],,8/1,,5,6,7,
8-5[8:1]/4-1[8:1],,84,,{24}26,37,48,{8}1/5>1[4:1],,1<5[4:1],
,5w1[8:1],,,,7,1-4[8:1],7,
1,6-1[8:1],5,6,4,53,62,71,
8b-5[8:1]*-6[8:1],,8b-2[8:1]*-3[8:1],,8bw4[8:1],,8b,,
2-6[8:1]/1,,6V41[4:1],,8,8^5[8:1],,8^3[8:1],
,8-4[8:1],,8,,8,{16}8,1,2,3,
{8}
4/5-1[8:1],,1V74[4:1],,2,2-6[8:1],,2/8-4[8:1],
,8-6[8:1]/1-5[8:1],,1/8,,4,3,2,
18,,56,4/7h[4:1],,8,,45,,{16}18,7,6,5,{8}34,2h[4:1]/5,,1,,
{16}
3h[8:1]/8h[8:1],,,4h[8:1]/7h[8:1],,,5/6h[4:1],,
1h[8:1],,,2h[8:1]/5h[8:1],,,3h[8:1]/4,,
{4}8b-3[8:1],1b-6[8:1],5b-8[8:1],4b,
{16}
37,,2,1,2,,37,,6,4,6,,3,5,3,,
7h[16:3],,,8,7,,16,,2,3,4,5,6,7,8,1,
62,,3,4,3,,62,,7,1,7,,2,8,2,8,
2h[16:3],,,1,2,,83,,7,6,5,4,3,2,1,8,
37,,6,5,6,,37,,2,8,2,,7,1,7,1,
7h[16:3],,,8,7,,16,,5,4,3,2,1,8,7,6,
5h[16:3],,,4,5,,36,,7,1,7,,2,8,2,8,
2,3,4,5,8,7,6,5,{32}1,2,3,4,5,6,7,8,{8}1b/5b,,
2h[8:3],,6,6^1[4:1],,1^4[4:1],,
4<1[8:3],,1,1^4[4:1],,4-8[8:1],,,,
6h[8:3],,2,2^5[4:1],,5^8[4:1],,
8>5[8:3],,5,5^8[4:1],,8-4[8:1],,,,
2,2,3,3,4,4,5,5,6,6,7,7,{16}1,8,1,,72,,72,,
6,4,6,4,5,3,5,3,5,6,7,8,3,2,1,8,
{24}
5b,,,2,3,4,6b,,,2,3,4,7b,,,2,3,4,
{32}8b-4[8:1],1,2,3,4,5,6,7,
{1},,,,
{8}
4h[4:1],,6,,5,5h[4:1],,6,,4,5,3,,6,3,5,
4,,4,3,5,6,4,5,4h[4:1],,5,,6,6,3,3,
{1}5b<4[4:11],,,,E
