&title=SAY BAY
&artist=P*Light
&first=-0.12
&des=Noka
&des_5=
&lv_5=14
&inote_5=(165){4},{2},{4}1?s5[4:13]*s5[4:13],
{1},,,{4},7?-3[8:1],
7b,{8}2,2,
{16}3,4,{8}3,{16}6,5,6,5,7,4,5,4,{8}6,{16}6,5,
{8}6,4/7,{16}5,6,4b,8,{4}2b,{8}8,8,
{16}6,5,{8}7,{16}3,4,3,4,2,5,4,6,{8}3,{16}3,5,
{8}4,6/3,{16}5-1[8:1]*-2[8:1],4,7b,4,{4}5b,{8}8b/7b,1/6,
{16}4,5,{8}4,{16}7,5,6,4,5,3,{8}4,2b/1b,3/8,
{16}5,4,{8}5,{16}2,4,3,5,4,6,{8}5,8b/7b,6,
2b/1b,3,8b/7b,6b/1b,1bqq6[2:1]/2bq5[2:1],3b/8b,{4},,,2b/8b,
3h[8:1]/4-6[8:1],
,2h[8:1]/3v8[8:1],,1h[8:1]/2h[8:1],
3h[8:1],2h[8:1]/1p5[8:1]*v4[8:1],1b,{8}1h[8:1],8,
{16}1,8,{8}1,{16}2,8,3,7,4,6,{8}5,8h[8:1],1,
{16}8,1,{8}8,{16}7,1b,8,2,{4}4b/3b,{8}5h[8:1],4,
{16}5,4,{8}5,{16}6,4,5,4,7,4,{8}5,{16}6-3[8:1],6,2-5[8:1],2,
{8}6b,2b,{16}7-3[8:1],7,1-5[8:1],1,{8}7b,1b,6h[8:1],4,
{16}6,5,{8}6,{16}3,5,4,5,2,5,{8}4,2h[8:1],8,
{16}1,8,{8}1,{16}2,8b,1,7,{4}5b/6b,{8}5/2,3/4,
{16}2,1,{8}3,4/7,5/6,{16}7-3[8:1],8,{8}6-4[8:1],7b>2[8:1],6b,
{4},{16}3b-6[16:1],{8},{16}3b/8b-5[16:1],{8},8b,4h[8:1],6,
{16}4,5,{8}3,{16}2,1,3,8,1,8,2,7,{8}1h[8:1],8,
{16}7,8,{8}6,{16}2,5b,1,6,{4}8b/7b,{8}2h[8:1],1,
{16}3,4,{8}2,{16}7,8,6,1,5,4,6,3,7-4[8:1],7,3-6[8:1],3,
{8}7b,3b,{16}8-4[8:1],8,2-6[8:1],2,{8}8b,2b,7h[8:1],1,
{16}6,5,{8}7,{16}3,4,2,5,1,8,2,7,{8}4h[8:1],5,
{16}6,5,{8}7,{16}3,6b,2,7,{4}1b/8b,{8}3/4,2/5,
{16}1,1,{8}8,5/6,4/7,{16}8,8,{8}1,7b/2b-5[8:1],1b,
2b/7b-4[8:1],8b,7b/2b-5[8:1]*-7[8:1],1,{4},1-4[8:1]/6-3[8:1],
1/6,{8}8/7,{16}7,6,{8}5/3,{16}3,4,{8}7/5,{16}7,6,
{8}3/5,{16}3,4,{8}7-4[8:1]/5-8[8:1],2/1,{4},2-5[8:1]/7-4[8:1],
2/7,{8}1/8,{16}8,7,{8}4/6,{16}1,2,{8}3/5,{16}8,7,
{8}4/6,{16}1,2,{8}3-5[8:1]/6-4[8:1],1/8,{4},8-5[8:1]/3-6[8:1],
8/3,{8}1/2,{16}2,3,{8}4/6,{16}6,5,{8}2/4,{16}2,3,
{8}6/4,{16}6,5,{8}2-5[8:1]/4-1[8:1],7/8,{4},3-8[8:1]/6-1[8:1],
3/6,{8}4/5,{16}1,8,{8}7V53[2:1]/2qq6[2:1],{16}3,6,{4},,,{8}4h[16:1]/5h[16:1],
4h[16:1]/5h[16:1],{4}5/4p7[2:1],
{16}6,{8},{16}6,{8},6,{16},6,{8},{4}6p1[2:1],
{16}2,{8},{16}8,{8},8,{16},8,{8},{4}8p3[2:1],
{16}1,{8},{16}1,{8},1,{16},1,{8},{4}1>6[4:3],
{16}7,{8},{16}8,{8},8,{16},8,{8},{4}8h[4:1],
{8}7h[8:1],{16}1,7,{8},4h[8:1],{16}6,4,{8},{4}2h[4:1],
{8}4h[8:1],{16}3,4,{8},2h[8:1],{16}1,2,{8}8,{4}7h[4:1],
{8}4h[8:1],{16}6,4,{8},8h[8:1],{16}2,8,{8},{4}4h[4:1],
{8}6h[8:1],{16}5,6,{8},2h[8:1],{16}1,2,{8}8,{4}1s5[16:9]/8V62[16:9],
,,,{16}4,5,4,5,
4,5,4,5,4,5,4,5,4,5,4,5,4h[16:1],5h[16:1],4h[16:1],5h[16:1],
3h[16:1],6h[16:1],4h[16:1],5h[16:1],3h[16:1],6h[16:1],4h[16:1],5h[16:1],2h[16:1],7h[16:1],4h[16:1],5h[16:1],1h[16:1],8h[16:1],3h[16:1],6h[16:1],
1h[16:1],7h[16:1],2h[16:1],5h[16:5],{4}1?s5[16:3],1b,{8}7,7,
{16}6,5,{8}6,8,8,{16}6,5,{8}6,{16}8h[16:1],7h[16:1],5h[16:1],6h[16:1],
8h[16:1],7h[16:1],5h[16:1],6h[16:1],{8}8,{16}8h[16:1],7h[16:1],5h[16:1],6h[16:1],8h[16:1],7h[16:1],{8}1,1,
{16}3,4,{8}3,2,2,{16}3,4,{8}3,2,{16}2h[16:1],1h[16:1],
3h[16:1],4h[16:1],2h[16:1],1h[16:1],{8}3,{16}3h[16:1],4h[16:1],2h[16:1],1h[16:1],3h[16:1],4h[16:1],{8}2b,{16}8h[16:1],1h[16:1],
6h[16:1],5h[16:1],7h[16:1],8h[16:1],{8}6,{16}4h[16:1],5h[16:1],3h[16:1],8h[16:1],2h[16:1],7h[16:1],{8}4b,{16}5h[16:1],4h[16:1],
1h[16:1],2h[16:1],6h[16:1],5h[16:1],{8}8,{16}1h[16:1],8h[16:1],3h[16:1],5h[16:1],4h[16:1],6h[16:1],1b,4,3,4,
2b,5,4,5,3b,6,5,6,4b,7,6,7,{4}8V26[8:3]/5V37[8:3],
{2},{4}5b/8b,{8}5-8[8:1]/6-3[8:1],4/7,
{4},{8}1-5[8:1]/2-6[8:1],3/8,{4},{8}4/7-5[8:1],8/3,
7,1,3-8[8:1]/4-8[8:1],2/5,{4},{24}1/7,2,3,5/4,{16},{48},{24}8/2,
7,6,4/5,{16},{48},{24}7,6,5,2,3,4,8,7,6,1,2,3,{32}8b,7,6,5,2b,3,4,5,
8b-4[8:1],7,6,5,2b,3,4,5,{4}8b/1?s5[8:1],1b,{8}8h[8:1],1,
{16}8,8,{8}8,{16}7,1,5,3,7,4,6,3,{8}5h[8:1],4,
{16}5,5,{8}5,{16}4,6b,1,8,{4}2b/7b,{8}5h[8:1],4,
{16}5,5,{8}5,{16}6,4,7,3,6,4,5,3,7-4[8:1],7,2-5[8:1],2,
{8}7b,2b,{16}8-4[8:1],8,1-5[8:1],1,{8}8b,1b,6h[8:1],4,
{16}6,5,{8}7/4,{16}3,5,1,7,4,6,2,1,{8}2h[8:1],8,
{16}2,1,{8}8/3,{16}2,8b,4,7,{4}5b/6b,{8}6/1,3/4,
{16}2,1,{8}4,3/8,5/6,{16}7-3[8:1],8,{8}5-1[8:1],7b>5[4:1],5b,
{4},{16}7b-3[16:1],{8},{16}7b/2b-5[16:1],{8},1b/2b,7h[8:1],8,
{16}1,7,2,8,{8}3h[8:1],4,{16}5,3,6,4,7,5,8,6,
7,1,8,2,1,3,4,2,5,3,6,4,{8}5/7,1/8,
{16}2,4,3,5,{8}6/4,1/8,{16}3,5,4,6,1>4[8:1],1,8<5[8:1],8,
{8}1b,8b,{16}2-6[8:1],2,7-3[8:1],7,{8}2b,7b,1h[8:1],8,
{16}1,3,2,4,{8}3h[8:1],5,{16}4,6,5,7,3,1,2,8,
1,7,8,6,5,7,4,6,3,5,2,4,{8}1/8,3/6,
{16}2,5,4,7,{8}5/6,3/8,{16}2,4,8,6,{24}2b,3,4,1b,2,3,
8b,1,2,7b,8,1,{32}6b,7,8,1,2,3,4,5,{4}8s4[3.2727##0.2727]/6-2[8:1],6b/8h[1:2],
,,,{16}2h[1:1],2?z6[1.3636##0.2727],
